<?xml version="1.0" standalone="no"?>
<!DOCTYPE svg PUBLIC "-//W3C//DTD SVG 1.1//EN" "http://www.w3.org/Graphics/SVG/1.1/DTD/svg11.dtd" >
<svg xmlns="http://www.w3.org/2000/svg">
<metadata>Generated by IcoMoon</metadata>
<defs>
<font id="icomoon" horiz-adv-x="1024">
<font-face units-per-em="1024" ascent="960" descent="-64" />
<missing-glyph horiz-adv-x="1024" />
<glyph unicode="&#x20;" horiz-adv-x="512" d="" />
<glyph unicode="&#xe286;" glyph-name="dashboard" d="M554 819.809h342v-256h-342v256zM554 51.809v426h342v-426h-342zM128 51.809v256h342v-256h-342zM128 393.809v426h342v-426h-342z" />
<glyph unicode="&#xe600;" glyph-name="columns" horiz-adv-x="952" d="M91.43 82.287h347.428v658.286h-365.714v-640q0-7.428 5.43-12.856t12.856-5.428zM877.714 100.571v640h-365.714v-658.286h347.428q7.428 0 12.856 5.428t5.428 12.856zM950.856 795.429v-694.856q0-37.714-26.856-64.572t-64.572-26.856h-768q-37.714 0-64.57 26.856t-26.856 64.572v694.856q0 37.714 26.856 64.572t64.57 26.856h768q37.714 0 64.572-26.856t26.856-64.572z" />
<glyph unicode="&#xe601;" glyph-name="file-alt" horiz-adv-x="732" d="M585.144 283.429v-36.572q0-8-5.144-13.144t-13.144-5.144h-402.286q-8 0-13.144 5.144t-5.144 13.144v36.572q0 8 5.144 13.144t13.144 5.144h402.286q8 0 13.144-5.144t5.144-13.144zM585.144 429.715v-36.572q0-8-5.144-13.144t-13.144-5.144h-402.286q-8 0-13.144 5.144t-5.144 13.144v36.572q0 8 5.144 13.144t13.144 5.142h402.286q8 0 13.144-5.142t5.144-13.144zM73.144 82.287h585.144v438.856h-237.714q-22.858 0-38.858 16t-16 38.858v237.714h-292.572v-731.428zM438.858 594.287h214.858q-5.714 16.572-12.572 23.428l-178.856 178.856q-6.858 6.858-23.428 12.572v-214.856zM731.428 576.001v-512q0-22.856-16-38.856t-38.856-16h-621.714q-22.856 0-38.856 16t-16 38.856v768q0 22.856 16 38.856t38.856 16h365.714q22.858 0 50.286-11.428t43.428-27.428l178.286-178.286q16-16 27.428-43.428t11.428-50.286z" />
<glyph unicode="&#xe602;" glyph-name="copy" d="M969.144 740.571q22.856 0 38.856-16t16-38.856v-694.856q0-22.856-16-38.856t-38.856-16h-548.572q-22.856 0-38.856 16t-16 38.856v164.572h-310.858q-22.856 0-38.856 16t-16 38.856v384q0 22.856 11.43 50.286t27.428 43.43l233.144 233.144q16 16 43.43 27.428t50.286 11.428h237.714q22.856 0 38.856-16t16-38.856v-187.43q38.856 22.858 73.144 22.858h237.714zM658.286 618.857l-170.856-170.856h170.856v170.856zM292.572 838.287l-170.856-170.856h170.856v170.856zM404.572 468.571l180.572 180.572v237.714h-219.428v-237.714q0-22.856-16-38.856t-38.856-16h-237.714v-365.714h292.572v146.286q0 22.856 11.428 50.286t27.428 43.428zM950.856 9.143v658.286h-219.428v-237.714q0-22.856-16-38.856t-38.856-16h-237.714v-365.714h512z" />
<glyph unicode="&#xe603;" glyph-name="exclamation-sign" horiz-adv-x="878" d="M438.858 886.857q119.43 0 220.286-58.856t159.714-159.714 58.856-220.286-58.856-220.286-159.714-159.714-220.286-58.856-220.286 58.856-159.714 159.714-58.856 220.286 58.856 220.286 159.714 159.714 220.286 58.856zM512 174.287v108.572q0 8-5.142 13.428t-12.572 5.428h-109.714q-7.428 0-13.144-5.714t-5.714-13.144v-108.572q0-7.428 5.714-13.144t13.144-5.714h109.714q7.428 0 12.572 5.428t5.142 13.428zM510.858 370.857l10.286 354.856q0 6.856-5.714 10.286-5.714 4.57-13.714 4.57h-125.714q-8 0-13.714-4.57-5.714-3.43-5.714-10.286l9.714-354.856q0-5.714 5.714-10t13.714-4.286h105.714q8 0 13.428 4.286t6 10z" />
<glyph unicode="&#xe604;" glyph-name="blog" horiz-adv-x="952" d="M936.572 686.857q22.856-32.57 10.286-73.714l-157.144-517.714q-10.856-36.572-43.714-61.428t-70-24.856h-527.428q-44 0-84.856 30.572t-56.856 75.144q-13.714 38.286-1.142 72.572 0 2.286 1.714 15.428t2.286 21.144q0.57 4.572-1.714 12.286t-1.714 11.144q1.142 6.286 4.57 12t9.43 13.428 9.428 13.428q13.144 21.714 25.714 52.286t17.144 52.286q1.714 5.714 0.286 17.144t-0.286 16q1.714 6.286 9.714 16t9.714 13.144q12 20.572 24 52.572t14.286 51.428q0.57 5.142-1.43 18.286t0.286 16q2.286 7.428 12.57 17.428t12.57 12.858q10.856 14.856 24.286 48.286t15.714 55.144q0.57 4.572-1.714 14.572t-1.144 15.142q1.144 4.572 5.144 10.286t10.286 13.144 9.714 12q4.57 6.856 9.43 17.428t8.57 20 9.144 20.572 11.144 18.286 15.142 13.428 20.572 6.572 27.144-3.142l-0.572-1.714q21.714 5.144 29.144 5.144h434.856q42.286 0 65.144-32t10.286-74.286l-156.572-517.714q-20.572-68-40.856-87.714t-73.428-19.714h-496.572q-15.43 0-21.714-8.572-6.286-9.144-0.57-24.572 13.714-40 82.286-40h527.428q16.572 0 32 8.856t20 23.714l171.428 564q4 12.572 2.856 32.57 21.714-8.57 33.714-24.57zM328.572 685.715q-2.286-7.428 1.142-12.856t11.428-5.428h347.428q7.428 0 14.572 5.428t9.428 12.856l12 36.57q2.286 7.43-1.144 12.858t-11.428 5.428h-347.428q-7.428 0-14.572-5.428t-9.428-12.858zM281.142 539.429q-2.286-7.428 1.142-12.856t11.428-5.428h347.428q7.428 0 14.572 5.428t9.428 12.856l12 36.572q2.286 7.428-1.144 12.856t-11.428 5.428h-347.428q-7.428 0-14.572-5.428t-9.428-12.856z" />
<glyph unicode="&#xe605;" glyph-name="check-empty" horiz-adv-x="806" d="M640 813.715h-475.428q-37.714 0-64.57-26.856t-26.856-64.572v-475.428q0-37.714 26.856-64.572t64.57-26.856h475.428q37.714 0 64.572 26.856t26.856 64.572v475.428q0 37.714-26.856 64.572t-64.572 26.856zM804.572 722.287v-475.428q0-68-48.286-116.286t-116.286-48.286h-475.428q-68 0-116.286 48.286t-48.286 116.286v475.428q0 68 48.286 116.286t116.286 48.286h475.428q68 0 116.286-48.286t48.286-116.286z" />
<glyph unicode="&#xe606;" glyph-name="list-ul" d="M219.43 155.429q0-45.714-32-77.714t-77.714-32-77.714 32-32 77.714 32 77.714 77.714 32 77.714-32 32-77.714zM219.43 448.001q0-45.714-32-77.714t-77.714-32-77.714 32-32 77.714 32 77.714 77.714 32 77.714-32 32-77.714zM1024 210.287v-109.714q0-7.428-5.428-12.856t-12.856-5.428h-694.856q-7.428 0-12.856 5.428t-5.428 12.856v109.714q0 7.428 5.428 12.856t12.856 5.428h694.856q7.428 0 12.856-5.428t5.428-12.856zM219.43 740.571q0-45.714-32-77.714t-77.714-32-77.714 32-32 77.714 32 77.714 77.714 32 77.714-32 32-77.714zM1024 502.857v-109.714q0-7.428-5.428-12.856t-12.856-5.428h-694.856q-7.428 0-12.856 5.428t-5.428 12.856v109.714q0 7.428 5.428 12.858t12.856 5.428h694.856q7.428 0 12.856-5.428t5.428-12.856zM1024 795.429v-109.714q0-7.428-5.428-12.856t-12.856-5.428h-694.856q-7.428 0-12.856 5.428t-5.428 12.856v109.714q0 7.428 5.428 12.858t12.856 5.428h694.856q7.428 0 12.856-5.428t5.428-12.858z" />
<glyph unicode="&#xe607;" glyph-name="youtube" d="M832 832.001h-640c-105.6 0-192-86.4-192-192v-384c0-105.6 86.4-192 192-192h640c105.6 0 192 86.4 192 192v384c0 105.6-86.4 192-192 192zM384 192.001v512l320-256-320-256z" />
<glyph unicode="&#xe608;" glyph-name="flag" d="M182.856 813.715q0-41.144-36.57-62.856v-723.428q0-7.428-5.43-12.856t-12.856-5.428h-36.57q-7.43 0-12.856 5.428t-5.43 12.856v723.428q-36.57 21.714-36.57 62.856 0 30.286 21.43 51.714t51.714 21.43 51.714-21.43 21.43-51.714zM1024 777.143v-436q0-14.286-7.144-22t-22.572-15.714q-122.856-66.286-210.856-66.286-34.856 0-70.572 12.572t-62 27.428-66 27.428-81.428 12.572q-109.714 0-265.142-83.428-9.714-5.144-18.856-5.144-14.856 0-25.714 10.856t-10.856 25.714v424q0 18.286 17.714 31.428 12 8 45.144 24.572 134.856 68.57 240.57 68.57 61.142 0 114.286-16.57t125.144-50.286q21.714-10.856 50.286-10.856 30.856 0 67.144 12t62.856 26.856 50.286 26.856 31.144 12q14.856 0 25.714-10.856t10.856-25.714z" />
<glyph unicode="&#xe609;" glyph-name="dollar" horiz-adv-x="586" d="M558.856 282.857q0-87.428-56.856-150.572t-147.714-78v-100q0-8-5.142-13.144t-13.144-5.142h-77.144q-7.43 0-12.856 5.428t-5.43 12.858v100q-37.714 5.144-72.856 17.714t-58 25.428-42.286 27.428-26.57 21.428-10 10.286q-9.714 12-1.144 23.428l58.856 77.144q4 5.714 13.144 6.856 8.57 1.144 13.714-5.144l1.144-1.144q64.57-56.572 138.856-71.428 21.144-4.572 42.286-4.572 46.286 0 81.428 24.572t35.144 69.714q0 16-8.572 30.286t-19.144 24-33.428 21.428-37.714 18.286-45.714 18.572q-22.286 9.144-35.144 14.286t-35.144 15.144-35.714 17.714-32.286 20.286-30.57 24.286-24.856 28-20.286 33.144-12 38-4.856 44.572q0 78.856 56 138.286t145.714 76.572v102.856q0 7.43 5.43 12.856t12.858 5.43h77.144q8 0 13.144-5.144t5.142-13.144v-100.57q32.57-3.43 63.142-13.144t49.714-19.144 36.286-21.428 22.286-16.572 8.572-8q9.714-10.286 2.856-21.714l-46.286-83.43q-4.572-8.572-13.142-9.142-8-1.714-15.428 4-1.714 1.714-8.286 6.856t-22.286 15.144-33.428 18.286-42.572 14.856-48.856 6.572q-54.286 0-88.57-24.572t-34.286-63.428q0-14.856 4.856-27.428t16.856-23.714 22.57-18.856 32-17.714 34.572-15.428 40-15.714q30.286-11.428 46.286-18t43.43-20 43.144-24.286 35.428-28.572 30.286-36.286 18-43.714 7.428-53.714z" />
<glyph unicode="&#xe60a;" glyph-name="tasks" d="M585.144 155.429h365.714v73.144h-365.714v-73.144zM365.714 448.001h585.144v73.144h-585.144v-73.144zM731.428 740.571h219.428v73.144h-219.428v-73.144zM1024 265.143v-146.286q0-14.856-10.856-25.714t-25.714-10.856h-950.856q-14.856 0-25.714 10.856t-10.856 25.714v146.286q0 14.856 10.856 25.714t25.714 10.856h950.856q14.856 0 25.714-10.856t10.856-25.714zM1024 557.715v-146.286q0-14.856-10.856-25.714t-25.714-10.856h-950.856q-14.856 0-25.714 10.856t-10.856 25.714v146.286q0 14.858 10.856 25.714t25.714 10.856h950.856q14.856 0 25.714-10.856t10.856-25.714zM1024 850.287v-146.286q0-14.856-10.856-25.714t-25.714-10.856h-950.856q-14.856 0-25.714 10.856t-10.856 25.714v146.286q0 14.856 10.856 25.714t25.714 10.858h950.856q14.856 0 25.714-10.858t10.856-25.714z" />
<glyph unicode="&#xe60b;" glyph-name="table" horiz-adv-x="952" d="M292.572 173.715v109.714q0 8-5.142 13.144t-13.142 5.144h-182.856q-8 0-13.144-5.144t-5.144-13.144v-109.714q0-8 5.144-13.144t13.144-5.144h182.856q8 0 13.144 5.144t5.142 13.144zM292.572 393.143v109.714q0 8-5.142 13.144t-13.142 5.142h-182.856q-8 0-13.144-5.142t-5.144-13.144v-109.714q0-8 5.144-13.144t13.144-5.144h182.856q8 0 13.144 5.144t5.142 13.144zM585.144 173.715v109.714q0 8-5.144 13.144t-13.144 5.144h-182.856q-8 0-13.144-5.144t-5.142-13.144v-109.714q0-8 5.142-13.144t13.144-5.144h182.856q8 0 13.144 5.144t5.144 13.144zM292.572 612.571v109.714q0 8-5.142 13.144t-13.142 5.144h-182.856q-8 0-13.144-5.144t-5.144-13.144v-109.714q0-8 5.144-13.144t13.144-5.144h182.856q8 0 13.144 5.144t5.142 13.144zM585.144 393.143v109.714q0 8-5.144 13.144t-13.144 5.142h-182.856q-8 0-13.144-5.142t-5.142-13.144v-109.714q0-8 5.142-13.144t13.144-5.144h182.856q8 0 13.144 5.144t5.144 13.144zM877.714 173.715v109.714q0 8-5.144 13.144t-13.144 5.144h-182.856q-8 0-13.144-5.144t-5.144-13.144v-109.714q0-8 5.144-13.144t13.144-5.144h182.856q8 0 13.144 5.144t5.144 13.144zM585.144 612.571v109.714q0 8-5.144 13.144t-13.144 5.144h-182.856q-8 0-13.144-5.144t-5.142-13.144v-109.714q0-8 5.142-13.144t13.144-5.144h182.856q8 0 13.144 5.144t5.144 13.144zM877.714 393.143v109.714q0 8-5.144 13.144t-13.144 5.142h-182.856q-8 0-13.144-5.142t-5.144-13.144v-109.714q0-8 5.144-13.144t13.144-5.144h182.856q8 0 13.144 5.144t5.144 13.144zM877.714 612.571v109.714q0 8-5.144 13.144t-13.144 5.144h-182.856q-8 0-13.144-5.144t-5.144-13.144v-109.714q0-8 5.144-13.144t13.144-5.144h182.856q8 0 13.144 5.144t5.144 13.144zM950.856 795.429v-621.714q0-37.714-26.856-64.572t-64.572-26.856h-768q-37.714 0-64.57 26.856t-26.856 64.572v621.714q0 37.714 26.856 64.572t64.57 26.856h768q37.714 0 64.572-26.856t26.856-64.572z" />
<glyph unicode="&#xe60c;" glyph-name="list-alt" d="M219.43 283.429v-36.572q0-7.428-5.43-12.856t-12.856-5.428h-36.57q-7.43 0-12.856 5.428t-5.43 12.856v36.572q0 7.428 5.43 12.856t12.856 5.428h36.57q7.43 0 12.856-5.428t5.43-12.856zM219.43 429.715v-36.572q0-7.428-5.43-12.856t-12.856-5.428h-36.57q-7.43 0-12.856 5.428t-5.43 12.856v36.572q0 7.428 5.43 12.856t12.856 5.428h36.57q7.43 0 12.856-5.428t5.43-12.856zM219.43 576.001v-36.572q0-7.428-5.43-12.856t-12.856-5.428h-36.57q-7.43 0-12.856 5.428t-5.43 12.856v36.572q0 7.428 5.43 12.856t12.856 5.428h36.57q7.43 0 12.856-5.428t5.43-12.856zM877.714 283.429v-36.572q0-7.428-5.428-12.856t-12.856-5.428h-548.572q-7.428 0-12.856 5.428t-5.428 12.856v36.572q0 7.428 5.428 12.856t12.856 5.428h548.572q7.428 0 12.856-5.428t5.428-12.856zM877.714 429.715v-36.572q0-7.428-5.428-12.856t-12.856-5.428h-548.572q-7.428 0-12.856 5.428t-5.428 12.856v36.572q0 7.428 5.428 12.856t12.856 5.428h548.572q7.428 0 12.856-5.428t5.428-12.856zM877.714 576.001v-36.572q0-7.428-5.428-12.856t-12.856-5.428h-548.572q-7.428 0-12.856 5.428t-5.428 12.856v36.572q0 7.428 5.428 12.856t12.856 5.428h548.572q7.428 0 12.856-5.428t5.428-12.856zM950.856 173.715v475.428q0 7.428-5.428 12.856t-12.856 5.428h-841.144q-7.43 0-12.856-5.428t-5.43-12.856v-475.428q0-7.428 5.43-12.856t12.856-5.428h841.144q7.428 0 12.856 5.428t5.428 12.856zM1024 795.429v-621.714q0-37.714-26.856-64.572t-64.572-26.856h-841.144q-37.714 0-64.57 26.856t-26.856 64.572v621.714q0 37.714 26.856 64.572t64.57 26.856h841.144q37.714 0 64.572-26.856t26.856-64.572z" />
<glyph unicode="&#xe60d;" glyph-name="expand-alt" horiz-adv-x="658" d="M512 429.715v-36.572q0-8-5.142-13.144t-13.142-5.144h-128v-128q0-8-5.142-13.144t-13.142-5.144h-36.572q-8 0-13.144 5.144t-5.142 13.144v128h-128q-8 0-13.144 5.144t-5.144 13.144v36.572q0 8 5.144 13.144t13.144 5.142h128v128q0 8 5.142 13.144t13.144 5.142h36.572q8 0 13.144-5.142t5.142-13.144v-128h128q8 0 13.142-5.144t5.144-13.144zM585.144 210.287v402.286q0 22.858-16 38.858t-38.856 16h-402.286q-22.856 0-38.856-16t-16-38.856v-402.286q0-22.856 16-38.856t38.856-16h402.286q22.856 0 38.856 16t16 38.856zM658.286 612.571v-402.286q0-52.572-37.428-90.286t-90.572-37.714h-402.286q-53.144 0-90.57 37.714t-37.43 90.286v402.286q0 53.144 37.43 90.572t90.57 37.428h402.286q53.144 0 90.572-37.428t37.428-90.572z" />
<glyph unicode="&#xe60e;" glyph-name="hand-up" horiz-adv-x="878" d="M731.428 45.715q0 14.856-10.856 25.714t-25.714 10.856-25.714-10.856-10.856-25.714 10.856-25.714 25.714-10.856 25.714 10.856 10.856 25.714zM804.572 482.287q0 108-95.428 108-14.856 0-32-2.856-9.144 17.144-30 27.144t-42 10-39.428-10.286q-28.572 30.286-68 30.286-14.286 0-31.714-5.714t-27.142-14.286v189.142q0 29.714-21.714 51.43t-51.43 21.714q-29.144 0-51.144-22.286t-22-50.858v-329.142q-11.428 0-27.714 8.572t-31.43 18.856-38.856 18.856-48.286 8.572q-38.286 0-55.714-25.428t-17.43-66q0-13.714 79.43-51.428 25.144-13.714 37.144-21.144 36.57-22.856 82.856-64 46.286-40.572 60.572-57.714 32.572-39.428 32.572-80v-18.286h365.714v18.286q0 41.144 18.286 95.428t36.572 110.572 18.286 102.572zM877.714 485.143q0-76-39.428-184-33.714-93.714-33.714-127.428v-164.572q0-30.286-21.428-51.714t-51.714-21.43h-365.714q-30.286 0-51.714 21.43t-21.428 51.714v164.572q0 5.714-2.572 12.286t-8 13.428-10.286 12.856-12.858 13.714-12.286 11.714-12.286 10.856-9.714 8q-42.286 37.144-73.714 57.144-12 7.428-35.43 18.856t-41.144 21.144-36 23.144-28.286 31.428-10 39.714q0 71.43 38.286 118t108 46.572q38.856 0 73.144-12.572v213.714q0 59.43 43.43 102.856t102.286 43.43q60 0 103.43-43.144t43.428-103.144v-96.57q35.428-2.286 68-21.144 12 1.714 24.572 1.714 57.714 0 101.714-34.286 79.428 0.572 125.428-48.572t46-129.714z" />
<glyph unicode="&#xe60f;" glyph-name="film" horiz-adv-x="1098" d="M219.43 45.715v73.144q0 14.856-10.856 25.714t-25.714 10.856h-73.144q-14.856 0-25.714-10.856t-10.856-25.714v-73.144q0-14.856 10.856-25.714t25.714-10.856h73.144q14.856 0 25.714 10.856t10.856 25.714zM219.43 265.143v73.144q0 14.856-10.856 25.714t-25.714 10.856h-73.144q-14.856 0-25.714-10.856t-10.856-25.714v-73.144q0-14.856 10.856-25.714t25.714-10.856h73.144q14.856 0 25.714 10.856t10.856 25.714zM219.43 484.571v73.144q0 14.856-10.856 25.714t-25.714 10.858h-73.144q-14.856 0-25.714-10.856t-10.856-25.714v-73.142q0-14.856 10.856-25.714t25.714-10.856h73.144q14.856 0 25.714 10.856t10.856 25.714zM804.572 45.715v292.572q0 14.856-10.856 25.714t-25.714 10.856h-438.858q-14.858 0-25.714-10.856t-10.856-25.714v-292.572q0-14.856 10.856-25.714t25.714-10.856h438.858q14.856 0 25.714 10.856t10.856 25.714zM219.43 704.001v73.144q0 14.856-10.856 25.714t-25.714 10.856h-73.144q-14.856 0-25.714-10.856t-10.856-25.714v-73.144q0-14.856 10.856-25.714t25.714-10.856h73.144q14.856 0 25.714 10.856t10.856 25.714zM1024 45.715v73.144q0 14.856-10.856 25.714t-25.714 10.856h-73.144q-14.856 0-25.714-10.856t-10.856-25.714v-73.144q0-14.856 10.856-25.714t25.714-10.856h73.144q14.856 0 25.714 10.856t10.856 25.714zM804.572 484.571v292.572q0 14.856-10.856 25.714t-25.714 10.856h-438.858q-14.858 0-25.714-10.856t-10.856-25.714v-292.572q0-14.856 10.856-25.714t25.714-10.856h438.858q14.856 0 25.714 10.856t10.856 25.714zM1024 265.143v73.144q0 14.856-10.856 25.714t-25.714 10.856h-73.144q-14.856 0-25.714-10.856t-10.856-25.714v-73.144q0-14.856 10.856-25.714t25.714-10.856h73.144q14.856 0 25.714 10.856t10.856 25.714zM1024 484.571v73.144q0 14.856-10.856 25.714t-25.714 10.858h-73.144q-14.856 0-25.714-10.856t-10.856-25.714v-73.142q0-14.856 10.856-25.714t25.714-10.856h73.144q14.856 0 25.714 10.856t10.856 25.714zM1024 704.001v73.144q0 14.856-10.856 25.714t-25.714 10.856h-73.144q-14.856 0-25.714-10.856t-10.856-25.714v-73.144q0-14.856 10.856-25.714t25.714-10.856h73.144q14.856 0 25.714 10.856t10.856 25.714zM1097.144 795.429v-768q0-37.714-26.856-64.572t-64.572-26.856h-914.286q-37.714 0-64.57 26.856t-26.856 64.572v768q0 37.714 26.856 64.572t64.57 26.856h914.286q37.714 0 64.572-26.856t26.856-64.572z" />
<glyph unicode="&#xe610;" glyph-name="star-empty" horiz-adv-x="952" d="M649.714 386.287l174.856 169.714-241.144 35.43-108 218.286-108-218.286-241.144-35.428 174.856-169.714-41.714-240.572 216 113.714 215.428-113.714zM950.856 590.287q0-12.572-14.856-27.428l-207.428-202.286 49.144-285.714q0.572-4 0.572-11.428 0-28.572-23.428-28.572-10.856 0-22.856 6.856l-256.572 134.856-256.572-134.856q-12.57-6.856-22.856-6.856-12 0-18 8.286t-6 20.286q0 3.428 1.144 11.428l49.144 285.714-208 202.286q-14.286 15.428-14.286 27.428 0 21.144 32 26.286l286.856 41.714 128.572 260q10.856 23.428 28 23.428t28-23.428l128.572-260 286.858-41.714q32-5.144 32-26.286z" />
<glyph unicode="&#xe611;" glyph-name="shopping-cart" horiz-adv-x="952" d="M365.714 82.287q0-30.286-21.428-51.714t-51.714-21.428-51.714 21.428-21.43 51.714 21.43 51.714 51.714 21.428 51.714-21.428 21.428-51.714zM877.714 82.287q0-30.286-21.428-51.714t-51.714-21.428-51.714 21.428-21.428 51.714 21.428 51.714 51.714 21.428 51.714-21.428 21.428-51.714zM950.856 704.001v-292.572q0-13.714-9.144-24.286t-23.428-12.286l-596.572-69.714q0.572-4 2.572-12.286t3.428-15.144 1.428-12.572q0-9.144-13.714-36.572h525.714q14.856 0 25.714-10.856t10.856-25.714-10.856-25.714-25.714-10.856h-585.144q-14.856 0-25.714 10.856t-10.856 25.714q0 8 6.286 22.572t16.856 34 11.714 21.714l-101.144 470.286h-116.57q-14.856 0-25.714 10.858t-10.856 25.714 10.856 25.714 25.714 10.858h146.286q9.144 0 16.286-3.714t11.43-8.856 7.43-14 4.286-15.144 3.144-16.856 2.57-14.572h686.286q14.856 0 25.714-10.856t10.856-25.714z" />
<glyph unicode="&#xe612;" glyph-name="users" d="M1024-2.559c0 0-1.996 193.894-13.876 213.966-17.664 29.952-58.674 50.482-134.86 82.33-75.93 31.744-100.25 58.572-100.25 115.866 0 34.458 23.194 23.194 33.382 86.222 4.198 26.164 24.678 0.462 28.62 60.108 0 23.808-11.162 29.748-11.162 29.748s5.632 35.226 7.884 62.31c2.764 33.792-17.050 120.986-122.47 120.986s-125.134-87.246-122.418-120.986c2.202-27.084 7.834-62.31 7.834-62.31s-11.162-5.94-11.162-29.748c3.942-59.698 24.422-33.996 28.672-60.108 10.138-63.028 33.332-51.764 33.332-86.222 0-38.962-11.264-63.846-42.342-85.71 165.888-83.046 188.16-99.994 188.16-174.234v-152.218h230.656zM523.47 264.961c-101.324 42.29-133.632 78.028-133.632 154.47 0 45.876 30.926 30.924 44.492 114.996 5.582 34.866 32.974 0.562 38.144 80.128 0 31.744-14.9 39.63-14.9 39.63s7.578 46.95 10.548 83.098c3.686 44.954-22.734 161.28-163.276 161.28s-166.912-116.274-163.226-161.28c2.97-36.148 10.496-83.098 10.496-83.098s-14.848-7.884-14.848-39.63c5.274-79.616 32.564-45.312 38.194-80.128 13.568-84.070 44.492-69.070 44.492-114.996 0-76.442-32.41-112.178-133.632-154.47-30.874-12.902-86.322-32.922-86.322-80.948v-186.572h711.374c0 0 0 110.336 0 139.826 0 43.878-86.374 85.198-187.904 127.692z" />
<glyph unicode="&#xe613;" glyph-name="newspaper" d="M819.2 908.801h-614.4c-56.32 0-102.4-46.080-102.4-102.4v-716.8c0-56.32 46.080-102.4 102.4-102.4h614.4c56.37 0 102.4 46.080 102.4 102.4v716.8c0 56.32-46.028 102.4-102.4 102.4zM819.2 89.601h-614.4v716.8h614.4v-716.8zM563.2 345.601h-256v-51.2h256v51.2zM716.8 550.401h-204.8v-51.2h204.8v51.2zM512 601.601h204.8v102.4h-204.8v-102.4zM460.8 704.001h-153.6v-204.8h153.6v204.8zM409.6 448.001h-102.4v-51.2h102.4v51.2zM460.8 396.801h256v51.2h-256v-51.2zM716.8 243.201h-409.6v-51.2h409.6v51.2zM614.4 294.401h102.4v51.2h-102.4v-51.2z" />
<glyph unicode="&#xe614;" glyph-name="clock" d="M512 919.041c-260.146 0-471.040-210.944-471.040-471.040 0-260.146 210.894-471.040 471.040-471.040s471.040 210.894 471.040 471.040c0 260.148-210.894 471.040-471.040 471.040zM512 79.361c-203.622 0-368.64 165.068-368.64 368.64s165.018 368.64 368.64 368.64 368.64-165.068 368.64-368.64-165.018-368.64-368.64-368.64zM547.84 714.241h-71.68v-281.088l174.336-174.336 50.688 50.688-153.344 153.344z" />
<glyph unicode="&#xe615;" glyph-name="browser" d="M921.6 857.601h-819.2c-56.32 0-102.4-46.080-102.4-102.4v-614.4c0-56.37 46.080-102.4 102.4-102.4h819.2c56.32 0 102.4 46.028 102.4 102.4v614.4c0 56.32-46.080 102.4-102.4 102.4zM235.52 761.857c21.248 0 38.4-16.692 38.4-37.326 0-20.684-17.152-37.376-38.4-37.376s-38.4 16.692-38.4 37.326c0 20.684 17.204 37.376 38.4 37.376zM94.72 724.481c0 20.634 17.152 37.324 38.4 37.324s38.4-16.64 38.4-37.324c0-20.686-17.152-37.376-38.4-37.376s-38.4 16.742-38.4 37.376zM922.624 140.801h-821.248v471.040h821.248v-471.040zM922.624 693.761h-615.424v61.44h615.424v-61.44z" />
<glyph unicode="&#xe616;" glyph-name="air" d="M135.372 634.523c89.446 76.8 160.154 137.574 351.846 29.184 92.108-52.070 166.4-71.63 228.25-71.63 108.288 0 178.432 60.262 239.104 112.332 21.658 18.586 24.474 51.61 6.246 73.678s-50.482 24.934-72.14 6.348c-89.446-76.85-160.102-137.574-351.898-29.184-253.338 143.104-372.020 41.164-467.354-40.754-21.606-18.586-24.422-51.558-6.246-73.626s50.534-24.986 72.192-6.35zM888.626 522.957c-89.446-76.8-160.102-137.574-351.898-29.184-253.286 143.104-371.968 41.166-467.302-40.704-21.658-18.586-24.474-51.61-6.246-73.678s50.482-24.934 72.142-6.35c89.446 76.85 160.154 137.574 351.846 29.236 92.11-52.070 166.4-71.68 228.25-71.68 108.288 0 178.432 60.262 239.104 112.384 21.658 18.586 24.474 51.558 6.246 73.626-18.176 22.118-50.482 24.934-72.14 6.348zM888.626 261.479c-89.446-76.8-160.102-137.574-351.898-29.184-253.286 143.104-372.020 41.216-467.302-40.704-21.658-18.586-24.474-51.61-6.246-73.678s50.482-24.934 72.142-6.35c89.498 76.85 160.154 137.524 351.898 29.236 92.11-52.070 166.4-71.68 228.25-71.68 108.288 0 178.432 60.262 239.104 112.384 21.658 18.534 24.474 51.558 6.246 73.626s-50.534 24.986-72.192 6.35z" />
<glyph unicode="&#xe617;" glyph-name="map" d="M1007.77 702.771l-239.308 149.862c-10.598 6.656-23.86 6.656-34.458 0l-222.004-139.060-222.002 139.008c-10.598 6.656-23.858 6.656-34.458 0l-239.308-149.812c-10.036-6.298-16.23-17.714-16.23-29.952v-599.398c0-12.596 6.45-24.27 16.998-30.464s23.398-6.042 33.74 0.462l222.002 139.058 222.002-139.058c10.598-6.656 23.86-6.656 34.51 0l222.004 139.058 222.002-139.058c5.274-3.328 11.264-5.018 17.254-5.018 5.682 0 11.366 1.536 16.486 4.558 10.496 6.196 16.998 17.87 16.998 30.464v599.398c0 12.236-6.196 23.654-16.23 29.952zM239.258 243.047l-172.288-107.878v517.836l172.288 107.878v-517.836zM478.514 135.169l-172.288 107.878v517.836l172.288-107.878v-517.836zM717.774 243.047l-172.236-107.878v517.836l172.236 107.878v-517.836zM956.98 135.169l-172.236 107.878v517.836l172.236-107.878v-517.836z" />
<glyph unicode="&#xe618;" glyph-name="user" d="M758.784 220.263c-126.208 45.978-166.554 84.788-166.554 167.884 0 49.87 38.554 33.586 55.45 124.928 7.014 37.888 41.062 0.614 47.616 87.092 0 34.458-18.586 43.058-18.586 43.058s9.472 51.046 13.158 90.266c4.506 48.948-28.262 175.31-203.468 175.31-175.156 0-208.026-126.362-203.418-175.31 3.686-39.218 13.158-90.266 13.158-90.266s-18.638-8.55-18.638-43.058c6.502-86.476 40.55-49.202 47.564-87.092 16.948-91.342 55.5-75.058 55.5-124.928 0-83.098-40.346-121.908-166.554-167.884-126.668-46.080-208.896-93.134-208.896-125.236 0-32.052 0-107.776 0-107.776h962.56c0 0 0 75.726 0 107.776s-82.278 79.104-208.896 125.236z" />
<glyph unicode="&#xe619;" glyph-name="feather" d="M217.806-51.813c15.668 51.25 39.424 123.442 71.218 227.89 138.548 22.374 195.89-17.87 283.904 142.54-71.424-22.322-157.542 41.422-152.884 69.018 4.608 27.648 200.346-19.918 328.448 165.786-161.486-36.3-213.198 43.674-192.358 55.758 48.076 27.904 190.822 11.572 266.906 87.194 39.22 38.912 57.548 133.582 41.626 167.374-19.2 40.754-136.038 101.582-200.448 95.898-64.41-5.734-165.428-250.318-195.38-248.372s-35.942 109.518 16.332 209.562c-55.142-24.882-156.16-102.348-187.854-168.55-59.034-123.188 5.53-405.658-15.154-415.744-20.736-10.034-90.418 129.69-111.206 193.024-28.416-97.076-29.082-194.356 53.966-323.584-31.334-84.788-48.436-182.374-51.046-231.986-1.23-39.732 37.018-48.23 43.93-25.804z" />
<glyph unicode="&#xe61a;" glyph-name="minus" d="M778.188 499.201h-532.428c-28.314 0-30.72-22.938-30.72-51.2s2.406-51.2 30.72-51.2h532.428c28.314 0 30.77 22.938 30.77 51.2s-2.458 51.2-30.77 51.2z" />
<glyph unicode="&#xe61b;" glyph-name="link" d="M402.38 207.667l-41.472-41.164c-35.942-35.584-94.362-35.634-130.252 0-17.254 17.152-26.726 39.834-26.726 64.052s9.522 46.95 26.726 64.102l152.576 151.398c31.59 31.386 91.084 77.516 134.452 34.51 19.918-19.764 52.070-19.61 71.782 0.256 19.764 19.866 19.66 52.020-0.256 71.782-73.678 73.114-182.63 59.596-277.504-34.51l-152.576-151.398c-36.558-36.352-56.73-84.686-56.73-136.14 0-51.404 20.174-99.738 56.782-136.090 37.682-37.428 87.142-56.064 136.602-56.064s99.022 18.636 136.704 56.064l41.472 41.216c19.916 19.764 20.020 51.918 0.256 71.73-19.762 19.866-51.916 19.968-71.834 0.256zM864.818 795.699c-79.154 78.542-189.798 82.79-263.116 10.086l-51.662-51.25c-19.918-19.764-20.070-51.866-0.308-71.782 19.814-19.916 51.918-20.020 71.782-0.256l51.66 51.252c37.938 37.682 87.654 22.068 120.116-10.086 17.254-17.102 26.726-39.886 26.726-64.052 0-24.218-9.524-46.95-26.726-64.052l-162.816-161.484c-74.394-73.83-109.364-39.22-124.262-24.422-19.916 19.764-52.020 19.61-71.73-0.256-19.762-19.918-19.662-52.070 0.256-71.782 34.15-33.894 73.216-50.688 114.074-50.688 50.074 0 102.962 25.19 153.242 75.11l162.764 161.486c36.608 36.3 56.78 84.634 56.78 136.038s-20.174 99.788-56.78 136.14z" />
<glyph unicode="&#xe61c;" glyph-name="soundcloud" d="M34.406 271.053l16.794 71.68-16.794 74.086c-0.46 2.202-4.658 3.89-9.83 3.89-5.222 0-9.42-1.69-9.83-3.89l-14.746-74.086 14.798-71.68c0.41-2.254 4.608-3.89 9.83-3.89 5.12 0 9.318 1.638 9.778 3.89zM139.366 231.271l14.234 110.798-14.234 171.366c-0.41 4.404-5.734 7.834-12.186 7.834-6.502 0-11.826-3.38-12.134-7.782l-12.646-171.418 12.646-110.798c0.308-4.352 5.632-7.73 12.134-7.73 6.45-0.052 11.776 3.38 12.186 7.73zM244.122 233.063l11.878 108.954-11.878 228.198c-0.306 5.324-6.656 9.574-14.388 9.574-7.782 0-14.132-4.198-14.388-9.574l-10.546-228.198 10.546-109.004c0.256-5.326 6.604-9.524 14.388-9.524 7.73 0 14.080 4.198 14.388 9.574zM348.672 234.701l9.728 107.264-9.728 229.888c-0.256 6.348-7.424 11.366-16.384 11.366-9.012 0-16.178-5.018-16.436-11.366l-8.654-229.888 8.704-107.264c0.154-6.298 7.372-11.316 16.384-11.316 8.96 0 16.128 4.914 16.384 11.316zM453.12 236.033l7.68 105.882-7.68 263.578c-0.154 7.27-8.396 13.158-18.33 13.158s-18.126-5.888-18.278-13.158l-6.912-263.476c0-0.154 6.912-105.932 6.912-105.932 0.154-7.168 8.346-13.056 18.278-13.056 9.932-0.052 18.176 5.786 18.33 13.004zM526.234 222.925c0.308 0 363.468-0.206 365.824-0.206 72.908 0 131.942 57.14 131.942 127.642s-59.034 127.642-131.942 127.642c-18.126 0-35.328-3.534-51.046-9.932-10.496 114.996-110.284 205.21-231.936 205.21-29.746 0-58.778-5.632-84.378-15.258-9.932-3.738-12.646-7.526-12.698-14.95v-405.044c0.102-7.834 6.35-14.336 14.234-15.104z" />
<glyph unicode="&#xe61d;" glyph-name="d" d="M640-63.999h-448q-27 0-45.5 18.5t-18.5 45.5v896q0 26 18.5 45t45.5 19h448q106 0 181-75t75-181v-512q0-106-75-181t-181-75zM768 704.001q0 53-37.5 90.5t-90.5 37.5h-352q-13 0-22.5-9.5t-9.5-22.5v-704q0-13 9.5-22.5t22.5-9.5h352q53 0 90.5 37.5t37.5 90.5v512z" />
<glyph unicode="&#xe61e;" glyph-name="move-horizontal" d="M384 384.001h-192v-128l-192 192 192 192v-128h192zM640 512.001h192v128l192-192-192-192v128h-192z" />
<glyph unicode="&#xe61f;" glyph-name="uniF6CC" d="M896-63.999h-768q-53 0-90.5 37.5t-37.5 90.5v768q0 53 37.5 90.5t90.5 37.5h768q53 0 90.5-37.5t37.5-90.5v-768q0-53-37.5-90.5t-90.5-37.5zM704 672.001q0 13-9.5 22.5t-22.5 9.5-22.5-9.5-9.5-22.5v-208q0-7-5-11.5t-11-4.5h-224q-7 0-12 4.5t-5 11.5v208q0 13-9 22.5t-22.5 9.5-23-9.5-9.5-22.5v-448q0-13 9.5-22.5t23-9.5 22.5 9.5 9 22.5v144q0 7 5 11.5t12 4.5h224q6 0 11-4.5t5-11.5v-144q0-13 9.5-22.5t22.5-9.5 22.5 9.5 9.5 22.5v448z" />
<glyph unicode="&#xe620;" glyph-name="image" d="M0 832.001v-832h1024v832h-1024zM960 64.001h-896v704h896v-704zM704 608.001c0 53.020 42.98 96 96 96s96-42.98 96-96c0-53.020-42.98-96-96-96s-96 42.98-96 96zM896 128.001h-768l192 512 256-320 128 96z" />
<glyph unicode="&#xe621;" glyph-name="images" d="M128 704.001v-640h896v640h-896zM960 170.667l-128 213.334-145.066-120.888-110.934 184.888-384-320v512h768v-469.334zM256 480.001c0 53.020 42.98 96 96 96s96-42.98 96-96c0-53.020-42.98-96-96-96s-96 42.98-96 96zM896 832.001h-896v-640h64v576h832z" />
<glyph unicode="&#xe622;" glyph-name="uniF602" d="M0-63.999v1024h1024v-1024h-1024zM960 896.001h-896v-896h896v896zM896 256.001h-768v576h768v-576z" />
<glyph unicode="&#xe623;" glyph-name="stack" d="M1024 640.001l-512 256-512-256 512-256 512 256zM512 811.031l342.058-171.030-342.058-171.030-342.058 171.030 342.058 171.030zM921.444 499.279l102.556-51.278-512-256-512 256 102.556 51.278 409.444-204.722zM921.444 307.279l102.556-51.278-512-256-512 256 102.556 51.278 409.444-204.722z" />
<glyph unicode="&#xe624;" glyph-name="uniF61C" d="M992 64.001h-704q-13 0-22.5 9.5t-9.5 22.5v32h704v448h32q13 0 22.5-9.5t9.5-22.5v-448q0-13-9.5-22.5t-22.5-9.5zM864 192.001h-704q-13 0-22.5 9.5t-9.5 22.5v32h704v448h32q13 0 22.5-9.5t9.5-22.5v-448q0-13-9.5-22.5t-22.5-9.5zM736 320.001h-704q-13 0-22.5 9.5t-9.5 22.5v448q0 13 9.5 22.5t22.5 9.5h704q13 0 22.5-9.5t9.5-22.5v-448q0-13-9.5-22.5t-22.5-9.5zM704 768.001h-640v-384h640v384z" />
<glyph unicode="&#xe625;" glyph-name="insertpicture" d="M992 128.001q13 0 22.5-9.5t9.5-22.5v-128q0-13-9.5-22.5t-22.5-9.5h-128q-13 0-22.5 9.5t-9.5 22.5v32h-640v-32q0-13-9.5-22.5t-22.5-9.5h-128q-13 0-22.5 9.5t-9.5 22.5v128q0 13 9.5 22.5t22.5 9.5h32v640h-32q-13 0-22.5 9.5t-9.5 22.5v128q0 13 9.5 22.5t22.5 9.5h128q13 0 22.5-9.5t9.5-22.5v-32h640v32q0 13 9.5 22.5t22.5 9.5h128q13 0 22.5-9.5t9.5-22.5v-128q0-13-9.5-22.5t-22.5-9.5h-32v-640h32zM64 16.001q0-7 4.5-11.5t11.5-4.5h32q7 0 11.5 4.5t4.5 11.5v32q0 7-4.5 11.5t-11.5 4.5h-32q-7 0-11.5-4.5t-4.5-11.5v-32zM128 880.001q0 7-4.5 11.5t-11.5 4.5h-32q-7 0-11.5-4.5t-4.5-11.5v-32q0-7 4.5-11.5t11.5-4.5h32q7 0 11.5 4.5t4.5 11.5v32zM832 800.001v32h-640v-32q0-13-9.5-22.5t-22.5-9.5h-32v-640h32q13 0 22.5-9.5t9.5-22.5v-32h640v32q0 13 9.5 22.5t22.5 9.5h32v640h-32q-13 0-22.5 9.5t-9.5 22.5zM960 880.001q0 7-4.5 11.5t-11.5 4.5h-32q-7 0-11.5-4.5t-4.5-11.5v-32q0-7 4.5-11.5t11.5-4.5h32q7 0 11.5 4.5t4.5 11.5v32zM944 64.001h-32q-7 0-11.5-4.5t-4.5-11.5v-32q0-7 4.5-11.5t11.5-4.5h32q7 0 11.5 4.5t4.5 11.5v32q0 7-4.5 11.5t-11.5 4.5zM477 345.001l149 150q18 18 46.5 18t46.5-18l49-49v-254h-140zM352 512.001q-40 0-68 28t-28 68 28 68 68 28 68-28 28-68-28-68-68-28zM367 366.001l173-174h-284v156l18 18q18 19 46.5 19t46.5-19z" />
<glyph unicode="&#xe626;" glyph-name="bubbles" horiz-adv-x="1152" d="M480 832.001c-50.666 0-99.582-7.95-145.386-23.628-42.924-14.694-81.114-35.436-113.502-61.646-60.044-48.59-93.112-110.802-93.112-175.174 0-35.99 10.066-70.948 29.92-103.898 20.686-34.34 51.898-65.794 90.26-90.958 30.44-19.968 50.936-51.952 56.362-87.95 0.902-5.99 1.63-12.006 2.18-18.032 2.722 2.52 5.424 5.114 8.114 7.794 24.138 24.040 56.688 37.312 90.322 37.312 5.348 0 10.718-0.336 16.094-1.018 19.36-2.452 39.124-3.696 58.748-3.696 50.666 0 99.58 7.948 145.384 23.628 42.926 14.692 81.116 35.434 113.504 61.644 60.046 48.59 93.112 110.802 93.112 175.174s-33.066 126.582-93.112 175.174c-32.388 26.212-70.578 46.952-113.504 61.646-45.804 15.678-94.718 23.628-145.384 23.628zM480 960.001v0c265.096 0 480-173.914 480-388.448s-214.904-388.448-480-388.448c-25.458 0-50.446 1.62-74.834 4.71-103.106-102.694-222.172-121.108-341.166-123.814v25.134c64.252 31.354 116 88.466 116 153.734 0 9.106-0.712 18.048-2.030 26.794-108.558 71.214-177.97 179.988-177.97 301.89 0 214.534 214.904 388.448 480 388.448zM996 89.315c0-55.942 36.314-104.898 92-131.772v-21.542c-103.126 2.318-197.786 18.102-287.142 106.126-21.14-2.65-42.794-4.040-64.858-4.040-95.47 0-183.408 25.758-253.614 69.040 144.674 0.506 281.26 46.854 384.834 130.672 52.208 42.252 93.394 91.826 122.414 147.348 30.766 58.866 46.366 121.582 46.366 186.406 0 10.448-0.45 20.836-1.258 31.168 72.57-59.934 117.258-141.622 117.258-231.676 0-104.488-60.158-197.722-154.24-258.764-1.142-7.496-1.76-15.16-1.76-22.966z" />
<glyph unicode="&#xe627;" glyph-name="font" d="M960.5 640.001q-26.5 0-45.5 19t-19 45q0 53-37.5 90.5t-90.5 37.5h-64q-26 0-45-18.5t-19-45.5v-640q0-26 19-45t45.5-19 45-18.5 18.5-45-18.5-45.5-45.5-19h-384q-26 0-45 18.5t-19 45.5 19 45.5 45.5 18.5 45 19 18.5 45v640q0 27-18.5 45.5t-45.5 18.5h-64q-53 0-90.5-37.5t-37.5-90.5q0-26-18.5-45t-45-19-45.5 19-19 45v192q0 26 19 45t45 19h896q26 0 45-19t19-45v-192q0-27-18.5-45.5t-45-18.5z" />
<glyph unicode="&#xe628;" glyph-name="H" d="M832.5-63.999q-26.5 0-45 18.5t-18.5 45.5v352q0 13-9.5 22.5t-22.5 9.5h-449q-13 0-22.5-9.5t-9.5-22.5v-352q0-27-18.5-45.5t-45.5-18.5-45.5 18.5-18.5 45.5v896q0 26 18.5 45t45.5 19 45.5-19 18.5-45v-352q0-13 9.5-22.5t22.5-9.5h449q13 0 22.5 9.5t9.5 22.5v352q0 26 18.5 45t45 19 45.5-18.5 19-45.5v-896q0-27-19-45.5t-45.5-18.5z" />
<glyph unicode="&#xe629;" glyph-name="share2" d="M896-63.999h-768q-53 0-90.5 37.5t-37.5 90.5v768q0 53 37.5 90.5t90.5 37.5h256q26 0 45-19t19-45.5-19-45-45-18.5h-192q-26 0-45-19t-19-45v-640q0-27 18.5-45.5t45.5-18.5h640q26 0 45 18.5t19 45.5v192q0 26 18.5 45t45 19 45.5-19 19-45v-256q0-53-37.5-90.5t-90.5-37.5zM959.5 448.001q-26.5 0-45 18.5t-18.5 45.5v238l-413-413q-17-17-41-17t-41 17-17 41 17 41l413 413h-238q-27 0-45.5 18.5t-18.5 45 18.5 45.5 45.5 19h384q26 0 45-19t19-45v-384q0-27-19-45.5t-45.5-18.5z" />
<glyph unicode="&#xe62a;" glyph-name="layers-alt" horiz-adv-x="1022" d="M0 192.001l512.032-128 511.968 128v-128l-511.968-128-512.032 128zM0 448.001l512.032-128 511.968 128v-128l-511.968-128-512.032 128zM0 704.001l512.032-128 511.968 128v-128l-511.968-128-512.032 128zM0 960.001l512.032-128 511.968 128v-128l-511.968-128-512.032 128z" />
<glyph unicode="&#xe62b;" glyph-name="folder" d="M768 704.001h-256c0 47.104-38.228 85.332-85.332 85.332h-170.668c-70.57 0-128-57.428-128-128v-426.668c0-70.572 57.43-128 128-128h512c70.572 0 128 57.428 128 128v341.332c0 70.572-57.428 128-128 128zM256 704.001h170.668c0-47.104 38.228-85.332 85.332-85.332h256c23.552 0 42.668-19.116 42.668-42.668h-597.332v85.332c0 23.552 19.116 42.668 42.668 42.668zM768 192.001h-512c-23.552 0-42.668 19.116-42.668 42.668v298.666h597.332v-298.666c0-23.552-19.116-42.668-42.668-42.668z" />
<glyph unicode="&#xe62c;" glyph-name="vimeo2" d="M853.31 960.001h-682.62c-93.878 0-170.69-76.816-170.69-170.692v-682.62c0-93.938 76.812-170.688 170.69-170.688h682.62c93.878 0 170.69 76.75 170.69 170.69v682.618c0 93.876-76.812 170.692-170.69 170.692zM812.868 521.875c-33.958-191.296-223.708-353.296-280.78-390.31-57.088-37.006-109.154 14.822-128.038 53.994-21.616 44.708-86.41 286.94-103.368 307.020-16.964 20.038-67.876-20.080-67.876-20.080l-24.692 32.376c0 0 103.382 123.448 182.040 138.878 83.404 16.366 83.28-128.066 103.34-208.242 19.4-77.564 32.44-121.952 49.376-121.952 16.97 0 49.382 43.262 84.852 109.57 35.536 66.376-1.538 125.010-70.972 83.292 27.786 166.652 290.062 206.72 256.118 15.454z" />
<glyph unicode="&#xe62d;" glyph-name="TFicon" horiz-adv-x="920" d="M916.672 655.281l-456.696 304.528-456.64-304.6v-411.432l456.688-304.504 456.648 304.552v411.456zM62.256 504.569v119.112l397.744 265.296 397.76-265.232v-158.44l-397.776-265.264-231.664 154.496 89.28 59.576 142.424-94.952 337.856 225.368-337.936 225.312-397.688-265.272zM370.68 449.537l89.28 59.552 89.312-59.56-89.272-59.536-89.32 59.544zM460.024 10.073l-397.768 265.232v158.448l397.744 265.272 231.696-154.496-89.32-59.584-142.448 94.96-337.8-225.416 337.896-225.288 397.736 265.28v-119.136l-397.736-265.272z" />
<glyph unicode="&#xe62e;" glyph-name="loop-alt2" d="M384 640.001h-128v64c0 35.264 28.736 64 64 64h384c35.264 0 64-28.736 64-64v-64h128v64c0 105.888-86.112 192-192 192h-384c-105.888 0-192-86.112-192-192v-64h-128l192-256 192 256zM832 512.001l-192-256h128v-64c0-35.264-28.736-64-64-64h-384c-35.264 0-64 28.736-64 64v64h-128v-64c0-105.888 86.112-192 192-192h384c105.888 0 192 86.112 192 192v64h128l-192 256z" />
<glyph unicode="&#xe62f;" glyph-name="anchor" d="M927.968 348.961l-36.352-247.328-73.568 71.36c-58.272-49.248-166.336-116.256-323.328-116.256-157.92 0-267.136 65.376-325.248 112.224l-67.136-65.12-38.336 245.088 252.576-37.184-69.6-67.552c48.832-36.256 125.44-79.968 201.728-79.968l-0.224 403.488c-55.712 19.392-95.808 70.624-95.808 131.36 0 77.376 64.608 140.096 144.32 140.096 79.68 0 144.32-62.72 144.32-140.096 0-61.664-41.344-113.44-98.368-132.128 0.352-78.72 1.632-404.224-0.128-404.224 72.96 0 148.288 47.488 197.344 85.888l-65.024 63.136 252.832 37.216zM571.392 701.345c0 39.872-33.312 72.224-74.4 72.224s-74.432-32.352-74.432-72.224c0-39.904 33.344-72.256 74.432-72.256s74.4 32.352 74.4 72.256z" />
<glyph unicode="&#xe630;" glyph-name="pointer" d="M534.048 395.041l169.952-395.040-128-64-148.672 405.696-235.328-213.696v832l640-512-297.952-52.96z" />
<glyph unicode="&#xe631;" glyph-name="ellipsis" d="M153.6 560.641c-62.208 0-112.64-50.432-112.64-112.64s50.432-112.64 112.64-112.64 112.64 50.432 112.64 112.64c0 62.208-50.432 112.64-112.64 112.64zM512 560.641c-62.208 0-112.64-50.432-112.64-112.64s50.432-112.64 112.64-112.64 112.588 50.432 112.588 112.64c0 62.208-50.38 112.64-112.588 112.64zM870.4 560.641c-62.208 0-112.64-50.432-112.64-112.64s50.432-112.64 112.64-112.64 112.64 50.432 112.64 112.64c0 62.208-50.432 112.64-112.64 112.64z" />
<glyph unicode="&#xe632;" glyph-name="tag" d="M938.068 583.637l-120.96 376.022-390.656-120.746-341.164-630.486 503.38-272.084 340.308 628.948c0.256 0.428 0.512 0.896 0.726 1.28l9.044 16.726-0.682 0.342zM756.48 604.373c-30.804-57.088-102.1-78.336-159.232-47.488-57.13 30.932-78.336 102.188-47.446 159.188 30.848 57.13 102.23 78.336 159.274 47.488 57.088-30.848 78.336-102.144 47.404-159.188z" />
<glyph unicode="&#xe633;" glyph-name="file" d="M800-64h-575.999c-34.025 0-66.651 13.548-90.667 37.652-24.019 24.096-37.45 56.774-37.333 90.796v767.104c-0.035 70.78 57.22 128.235 128 128.448h416c37.305-1.122 72.902-15.903 100.031-41.536l146.432-146.432c25.58-27.165 40.352-62.74 41.536-100.032v-608c0-70.694-57.306-128-128-128v0 0zM224 64h576v512h-128c-70.692 0-128 57.308-128 128v128c-122.816 0-320 0-320-0.384v-767.616zM672 805.5v-101.504h101.568l-101.568 101.504z" />
<glyph unicode="&#xe634;" glyph-name="sidebar" d="M1024 832v-768c0-70.72-57.28-128-128-128h-768c-70.72 0-128 57.28-128 128v768c0 70.72 57.28 128 128 128h768c70.72 0 128-57.28 128-128zM128 832v-768h768v768h-768zM576 64v768h128v-768h-128z" />
<glyph unicode="&#xe635;" glyph-name="header" d="M128 960h768c70.72 0 128-57.28 128-128v-768c0-70.72-57.28-128-128-128h-768c-70.72 0-128 57.28-128 128v768c0 70.72 57.28 128 128 128zM128 64h768v768h-768v-768zM896 512h-768v128h768v-128z" />
<glyph unicode="&#xe636;" glyph-name="page_title" d="M896-64h-768c-70.72 0-128 57.28-128 128v768c0 70.72 57.28 128 128 128h768c70.72 0 128-57.28 128-128v-768c0-70.72-57.28-128-128-128zM896 832h-768v-768h768v768zM128 704v-320h768v320z" />
<glyph unicode="&#xe637;" glyph-name="footer" d="M896-64h-768c-70.72 0-128 57.28-128 128v768c0 70.72 57.28 128 128 128h768c70.72 0 128-57.28 128-128v-768c0-70.72-57.28-128-128-128zM896 832h-768v-768h768v768zM128 384h768v-128h-768v128z" />
<glyph unicode="&#xe638;" glyph-name="equalizer" d="M896 512.001h16c26.4 0 48 21.6 48 48v160c0 26.4-21.6 48-48 48h-16v192h-128v-192h-16c-26.4 0-48-21.6-48-48v-160c0-26.4 21.6-48 48-48h16v-576h128v576zM768 704.001h128v-128h-128v128zM592 128.001c26.4 0 48 21.6 48 48v160c0 26.4-21.6 48-48 48h-16v576h-128v-576h-16c-26.4 0-48-21.6-48-48v-160c0-26.4 21.6-48 48-48h16v-192h128v192h16zM448 320.001h128v-128h-128v128zM272 512.001c26.4 0 48 21.6 48 48v160c0 26.4-21.6 48-48 48h-16v192h-128v-192h-16c-26.4 0-48-21.6-48-48v-160c0-26.4 21.6-48 48-48h16v-576h128v576h16zM128 704.001h128v-128h-128v128z" />
<glyph unicode="&#xe639;" glyph-name="logo" d="M102.4 960.001h138.616v-896h692.48v-128h-831.096v1024z" />
<glyph unicode="&#xe63a;" glyph-name="sitewidth" d="M426.666 832.001v-42.668h42.666v42.668h-42.668zM853.332 789.333v42.668h-42.668v-42.668h42.668zM85.332 789.333v42.668h-42.668v85.332h-42.668v-213.332h42.668v85.332h42.668zM682.668 832.001v-42.668h42.668v42.668h-42.668zM554.668 832.001v-42.668h42.668v42.668h-42.668zM1024 576.001h-1024v-554.668h1024v554.668zM85.332 234.667v256h853.332v-256h-853.332zM85.332 106.667v85.332h85.332v-85.332h-85.332zM213.332 106.667v85.332h85.332v-85.332h-85.332zM341.334 106.667v85.332h85.334v-85.332h-85.332zM469.334 106.667v85.332h85.334v-85.332h-85.332zM597.332 106.667v85.332h85.332v-85.332h-85.332zM725.332 106.667v85.332h85.332v-85.332h-85.332zM853.332 106.667v85.332h85.332v-85.332h-85.332zM981.332 917.333v-85.332h-42.668v-42.668h42.668v-85.332h42.668v213.332h-42.668zM170.668 832.001v-42.668h42.668v42.668h-42.668zM298.666 832.001v-42.668h42.666v42.668h-42.668z" />
<glyph unicode="&#xe63b;" glyph-name="tools" d="M889.056 706.049c30.688-74.016 16.064-162.368-44.128-222.56-66.272-66.272-166.432-76.64-244.288-32.704l-56.288-61.472 40.16-40.32 24 24c12.256 12.288 32.16 12.288 44.416 0l194.624-196.608c12.288-12.256 12.288-32.16 0-44.416l-88.832-88.832c-12.256-12.288-32.16-12.288-44.416 0l-194.624 196.608c-12.288 12.256-12.288 32.16 0 44.416l21.92 21.92-38.272 38.368-269.152-294.048c-24.544-24.544-64.32-24.544-88.832 0l-22.208 22.208c-24.544 24.544-24.544 64.32 0 88.832l306.624 256.8-203.648 204.192-64.32 0.032-74.432 119.68 59.904 60 122.4-74.912 0.8-62.976 206.016-206.816 59.936 50.176c-58.592 79.872-52.48 192.384 19.712 264.576 59.904 59.904 147.776 74.784 221.6 44.672l-131.968-130.144 111.072-111.072 132.224 130.4zM196.8 130.113c-12.256 12.256-32.128 12.256-44.416 0-12.288-12.288-12.288-32.16 0-44.448 12.288-12.256 32.16-12.256 44.416 0 12.288 12.32 12.288 32.192 0 44.448z" />
<glyph unicode="&#xe63c;" glyph-name="loop" d="M874.022 810.021c-92.652 92.656-220.636 149.98-362.022 149.98-219.488 0-406.69-138.128-479.498-332.188l119.876-44.954c54.604 145.546 195.006 249.142 359.622 249.142 106.040 0 202.020-43 271.506-112.494l-143.506-143.506h384v384l-149.978-149.98zM512 64.001c-106.040 0-202.026 42.992-271.512 112.488l143.512 143.512h-384v-384l149.994 149.994c92.646-92.662 220.618-149.994 362.006-149.994 219.49 0 406.692 138.128 479.5 332.188l-119.876 44.954c-54.604-145.546-195.006-249.142-359.624-249.142z" />
<glyph unicode="&#xe63d;" glyph-name="droplet" d="M522.394 931.277c-1.332 10.956-19.456 10.956-20.786 0-45.21-363.93-276.326-438.938-276.326-691.866 0-156.212 131.226-282.88 286.72-282.88s286.72 126.72 286.72 282.88c0 252.928-231.116 327.936-276.326 691.866zM478.772 528.999c-3.072-11.212-6.298-22.784-9.626-34.662-20.532-72.908-43.826-155.596-43.826-251.188 0-51.814-30.618-70.196-59.238-70.196-32.666 0-59.188 26.674-59.188 59.698 0 112.998 54.426 186.778 102.452 251.904 15.052 20.378 29.236 39.63 40.806 58.88 5.274 8.754 19.508 8.396 25.958-0.308 2.918-4.198 3.942-9.318 2.662-14.13z" />
<glyph unicode="&#xe63e;" glyph-name="drive" d="M956.62 376.423l-161.178 383.59c-12.698 25.6-46.49 46.542-75.11 46.542h-416.614c-28.62 0-62.414-20.942-75.162-46.542l-161.126-383.59c-12.8-25.6-19.406-69.632-14.694-97.894l34.816-188.722c4.71-28.212 31.898-51.302 60.466-51.302h728.064c28.62 0 55.808 23.092 60.518 51.302l34.816 188.722c4.558 28.212-1.996 72.294-14.798 97.894zM886.784 241.971l-13.21-76.902c-3.994-29.542-30.618-53.71-59.086-53.71h-604.98c-28.518 0-55.092 24.166-59.086 53.71l-13.26 76.902c-3.942 29.542 16.128 53.71 44.698 53.71h660.274c28.57-0.052 48.64-24.166 44.646-53.71z" />
<glyph unicode="&#xe63f;" glyph-name="pin-outline" d="M914.602 636.331l-170.582 171.52c-32.086 32.256-88.020 32.596-120.746 0.256-8.362-8.362-14.932-18.602-17.836-26.836-27.86-58.112-57.77-94.506-96.17-116.352l-9.26-4.48c-41.3-20.692-97.492-41.772-201.344-41.772-11.348 0-22.228-2.218-32.682-6.486-20.652-8.618-37.504-25.386-46.164-46.25-8.492-20.65-8.492-44.416 0-65.068 4.438-10.624 10.668-20.096 18.56-27.776l138.028-138.028-163.072-228.394 228.352 163.072 137.684-137.686c7.936-8.064 17.322-14.464 27.99-18.816 10.538-4.394 21.462-6.572 32.682-6.572s22.144 2.22 32.64 6.572c21.248 8.746 37.674 25.26 46.080 45.996 4.394 10.326 6.614 21.632 6.614 32.768 0 103.936 21.076 160.086 41.728 201.428 21.164 42.326 58.41 74.582 117.504 102.996 11.562 4.438 21.76 10.924 30.336 19.5 32.938 33.366 32.768 87.51-0.342 120.406zM690.688 431.489c-34.944-70.1-50.688-143.788-50.986-239.104l-341.036 340.948c91.264 0 162.73 14.294 230.228 46.25l10.028 4.48c59.692 29.824 105.302 80.768 144.556 163.584l167.424-172.842c-79.488-38.1-130.39-83.628-160.212-143.318z" />
<glyph unicode="&#xe640;" glyph-name="pen" d="M212 382.593l-104.416-317.952 139.552 140.064c-9.6 24.224-7.232 65.6 12.384 85.184 26.272 26.304 69.536 25.696 95.808-0.608 26.304-26.304 27.712-70.336 1.44-96.64-20-20-63.936-21.152-88.448-10.784l-138.336-138.72 310.432 109.056 113.056 203.648-137.728 135.872-203.744-109.12zM735.392 852.833c0 0-192.352-192.32-222.016-222.016-29.728-29.696-45.248-141.408-45.248-141.408l86.24-86.272c0 0 108.896 15.552 140 46.688 31.136 31.104 222.016 222.016 222.016 222.016l-180.992 180.992z" />
<glyph unicode="&#xe641;" glyph-name="file-add" d="M889 912h-580c-48.053 0-87-38.948-87-87v-87h-87c-48.052 0-87-38.947-87-87v-580c0-48.053 38.948-87 87-87h580c48.053 0 87 38.947 87 87v87h87c48.053 0 87 38.947 87 87v580c0 48.052-38.947 87-87 87zM704.125 71h-558.25c-2.883 0-5.653 1.144-7.687 3.184s-3.185 4.805-3.185 7.688v558.25c0 2.883 1.144 5.652 3.185 7.688s4.805 3.184 7.687 3.184h76.125v-406c0-48.053 38.947-87 87-87h406v-76.125c0-2.883-1.144-5.652-3.184-7.688s-4.805-3.184-7.688-3.184zM878.125 245h-558.25c-2.883 0-5.652 1.144-7.688 3.184s-3.184 4.805-3.184 7.688v558.25c0 2.883 1.144 5.653 3.184 7.687s4.805 3.185 7.688 3.185h558.25c2.883 0 5.652-1.144 7.688-3.185s3.184-4.805 3.184-7.687v-558.25c0-2.883-1.144-5.652-3.184-7.688s-4.805-3.184-7.688-3.184zM400.145 704.855h266.18v-84.93h-266.18v84.93zM400.145 577.465h398.75v-42.465h-398.75v42.465zM400.145 492.535h398.75v-42.465h-398.75v42.465zM400.145 407.605h398.75v-42.465h-398.75v42.465z" />
<glyph unicode="&#xe642;" glyph-name="reply" d="M972.8 99.841c0 0-102.4 498.33-551.68 498.33v197.99l-369.92-330.496 369.92-342.578v223.13c243.866 0 424.55-21.606 551.68-246.374z" />
<glyph unicode="&#xe643;" glyph-name="forward" d="M602.88 346.215v-223.078l369.92 342.528-369.92 330.496v-197.938c-449.28 0-551.68-498.38-551.68-498.38 127.13 224.768 307.814 246.374 551.68 246.374z" />
<glyph unicode="&#xe644;" glyph-name="equalizer2" d="M896 512.001h16c26.4 0 48 21.6 48 48v160c0 26.4-21.6 48-48 48h-16v192h-128v-192h-16c-26.4 0-48-21.6-48-48v-160c0-26.4 21.6-48 48-48h16v-576h128v576zM768 704.001h128v-128h-128v128zM592 128.001c26.4 0 48 21.6 48 48v160c0 26.4-21.6 48-48 48h-16v576h-128v-576h-16c-26.4 0-48-21.6-48-48v-160c0-26.4 21.6-48 48-48h16v-192h128v192h16zM448 320.001h128v-128h-128v128zM272 512.001c26.4 0 48 21.6 48 48v160c0 26.4-21.6 48-48 48h-16v192h-128v-192h-16c-26.4 0-48-21.6-48-48v-160c0-26.4 21.6-48 48-48h16v-576h128v576h16zM128 704.001h128v-128h-128v128z" />
<glyph unicode="&#xe645;" glyph-name="plus2" d="M778.188 499.201h-215.040v215.040c0 28.262-22.886 30.72-51.2 30.72-28.262 0-51.2-2.406-51.2-30.72v-215.040h-214.99c-28.314 0-30.72-22.938-30.72-51.2s2.406-51.2 30.72-51.2h214.99v-215.040c0-28.262 22.938-30.72 51.2-30.72 28.314 0 51.2 2.458 51.2 30.72v215.040h215.040c28.314 0 30.77 22.938 30.77 51.2s-2.458 51.2-30.77 51.2z" />
<glyph unicode="&#xe646;" glyph-name="Gravityforms" horiz-adv-x="930" d="M930.072 631.447c-0.008 46.772-33.13 104.188-73.664 127.578l-317.708 183.432c-40.508 23.39-106.818 23.39-147.324 0l-317.712-183.432c-40.516-23.382-73.662-80.806-73.662-127.578v-366.878c0-46.788 33.142-104.2 73.662-127.598l317.716-183.438c40.514-23.378 106.826-23.378 147.324 0l317.708 183.438c40.538 23.394 73.662 80.814 73.662 127.598v366.878zM667.958 395.585h-398.274l-18.37-114.024c-2.162-15.128-10.808-22.698-25.94-22.698h-55.122c-15.132 0-21.616 7.57-19.454 22.698l38.37 242.634c11.348 71.332 47.016 112.942 130.236 112.942h440.424c15.128 0 21.61-7.566 19.452-22.698l-7.028-43.23c-2.158-15.132-11.346-22.696-26.476-22.696h-412.318c-25.94 0-42.152-14.052-45.936-39.988l-3.784-24.32h398.27c15.128 0 21.072-7.566 18.914-22.692l-7.028-43.234c-2.158-15.136-10.804-22.698-25.932-22.698z" />
<glyph unicode="&#xe900;" glyph-name="buy-now-cart" d="M981.315 915.191c23.564 0 42.666-19.102 42.666-42.666s-19.102-42.666-42.666-42.666h-79.873c-10.857 0-16.646-0.028-20.818-0.343l-0.423-0.033-0.105-0.411c-1.020-4.059-2.032-9.758-3.88-20.457l-60.488-350.375c-3.573-20.701-6.669-38.634-10.406-53.282-3.96-15.513-9.402-30.663-19.378-44.632-14.958-20.953-35.885-36.906-60.048-45.776-16.113-5.917-32.167-7.151-48.176-6.861-15.112 0.273-33.223 2.040-54.13 4.079l-463.316 45.17c-20.458 1.992-38.203 3.72-52.803 6.307-15.488 2.744-30.723 6.951-45.196 15.612-21.738 13.009-39.129 32.174-49.966 55.074-7.215 15.245-9.924 30.818-11.149 46.492-1.156 14.784-1.156 32.614-1.156 53.166v23.534c0 21.88 0 40.785 1.259 56.391 1.331 16.498 4.271 32.899 12.177 48.771 11.822 23.726 30.723 43.198 54.087 55.723 15.624 8.379 31.931 11.804 48.383 13.626 15.565 1.724 34.466 2.287 56.336 2.939l607.724 18.122 12.366 71.633c1.559 9.034 3.101 17.978 5.003 25.542 2.116 8.419 5.337 18.069 11.684 27.529 8.932 13.313 21.433 23.841 36.071 30.378 10.402 4.645 20.46 6.179 29.115 6.831l107.107 0.584zM637.911 165.314c29.106 0 53.179-23.846 53.179-53.852s-24.072-53.852-53.179-53.852c-29.102 0-53.175 23.846-53.175 53.852s24.072 53.852 53.175 53.852zM767.887 111.46c0 71.888-57.927 130.651-129.976 130.651-72.045 0-129.973-58.764-129.973-130.651 0-71.892 57.927-130.651 129.973-130.651 72.049 0 129.976 58.759 129.976 130.651zM202.919 165.314c29.102 0 53.179-23.846 53.179-53.852s-24.077-53.852-53.179-53.852c-29.102 0-53.175 23.846-53.175 53.852s24.072 53.852 53.175 53.852zM332.896 111.46c0 71.888-57.927 130.651-129.977 130.651-72.045 0-129.973-58.764-129.973-130.651 0-71.892 57.927-130.651 129.973-130.651 72.049 0 129.977 58.759 129.977 130.651z" />
<glyph unicode="&#xe901;" glyph-name="arrow-forward" d="M0.026 422.399v51.198c0 14.141 11.461 25.598 25.598 25.598h827.861l-227.828 227.318c-4.849 4.807-7.572 11.349-7.572 18.175s2.724 13.368 7.572 18.175l36.35 35.839c4.807 4.845 11.35 7.572 18.175 7.572s13.367-2.726 18.175-7.572l314.351-313.842c7.203-7.194 11.253-16.952 11.264-27.134v-19.455c-0.118-10.157-4.152-19.875-11.264-27.134l-314.351-313.84c-4.807-4.843-11.35-7.572-18.175-7.572s-13.367 2.729-18.175 7.572l-36.35 36.35c-4.818 4.721-7.531 11.181-7.531 17.919 0 6.742 2.713 13.204 7.531 17.919l227.828 227.316h-827.861c-14.138 0-25.598 11.463-25.598 25.598z" />
<glyph unicode="&#xe902;" glyph-name="carousel" d="M819.178 140.83v614.357c0 56.55-45.842 102.392-102.392 102.392h-409.571c-56.55 0-102.392-45.843-102.392-102.392v-614.357c0-56.552 45.843-102.392 102.392-102.392h409.571c56.552 0 102.392 45.842 102.392 102.392zM972.768 140.83c28.276 0 51.197 22.921 51.197 51.197v511.965c0 28.275-22.921 51.197-51.197 51.197h-51.197v-614.357h51.197zM0.035 703.99c0 28.275 22.922 51.197 51.197 51.197h51.197v-614.357h-51.197c-28.275 0-51.197 22.921-51.197 51.197v511.965z" />
<glyph unicode="&#xe903;" glyph-name="customize" d="M589.765 366.795l426.328 462.704c5.341 5.578 8.18 13.090 7.856 20.801-0.319 7.712-3.772 14.96-9.557 20.076l-81.858 81.754c-10.979 10.453-28.244 10.453-39.223 0l-463.276-425.799c-5.558-5.353-8.698-12.731-8.698-20.439 0-7.714 3.14-15.091 8.698-20.439l118.805-118.657c5.358-5.552 12.742-8.686 20.461-8.686s15.108 3.134 20.461 8.686zM345.902 429.813l148.363-148.745c9.313-8.533 15.512-19.922 17.623-32.362v-27.822c0.193-60.44-23.739-118.47-66.511-161.236-89.619-86.42-211.649-130.967-335.946-122.629-36.578-0.171-72.173 11.81-101.182 34.063-9.507 9.597-10.934 24.552-3.41 35.77 43.251 64.264 47.003 125.769 50.597 184.701 4.058 66.533 7.916 129.784 68.207 190.004 42.678 42.574 100.546 66.471 160.868 66.425 9.275 0.58 18.579 0.58 27.853 0 12.814-2.384 24.551-8.743 33.538-18.17z" />
<glyph unicode="&#xe904;" glyph-name="demos" d="M905.837 841.837h-787.675c-21.751 0-39.384-17.633-39.384-39.384s17.633-39.384 39.384-39.384h787.675c21.751 0 39.384 17.633 39.384 39.384s-17.633 39.384-39.384 39.384zM827.070 959.988h-630.14c-21.751 0-39.384-17.633-39.384-39.384s17.633-39.384 39.384-39.384h630.14c21.751 0 39.384 17.633 39.384 39.384s-17.633 39.384-39.384 39.384zM157.546 723.686h708.907c87.001 0 157.535-70.53 157.535-157.534v-472.606c0-87.006-70.534-157.535-157.535-157.535h-708.907c-87.005 0-157.535 70.529-157.535 157.535v472.606c0 87.002 70.53 157.534 157.535 157.534zM252.141 172.314h125.714v46.315h-33.082l20.795 62.856h105.862l20.795-62.856h-33.082v-46.315h126.185v46.315h-30.719l-100.665 289.234h-70.417l-100.665-289.234h-30.721v-46.315zM379.746 329.691h77.506l-31.665 94.994-5.199 20.795-0.204 1.418c-0.394 2.71-0.741 5.073-0.741 7.089h-1.418l-1.418-8.507c-0.641-2.347-1.186-4.978-1.807-7.992-0.751-3.66-1.622-7.872-2.919-12.802l-32.136-94.994zM748.302 211.697c0 21.751-17.633 39.384-39.384 39.384s-39.384-17.633-39.384-39.384c0-21.751 17.633-39.384 39.384-39.384s39.384 17.633 39.384 39.384zM708.919 329.849c21.751 0 39.384 17.633 39.384 39.384s-17.633 39.384-39.384 39.384c-21.751 0-39.384-17.633-39.384-39.384s17.633-39.384 39.384-39.384z" />
<glyph unicode="&#xe905;" glyph-name="documentation" d="M387.729 959.99c-24.81 0.020-48.602-9.866-66.093-27.461l-224.342-224.342c-17.596-17.491-27.48-41.283-27.461-66.093v-426.808c0-51.413 41.677-93.088 93.088-93.088h511.983c51.413 0 93.088 41.676 93.088 93.088v651.615c0 51.411-41.676 93.088-93.088 93.088h-287.176zM395.641 875.281v-194.554c0-25.705-20.838-46.544-46.544-46.544h-194.554l241.097 241.097zM628.361 378.191c0-12.851-10.421-23.272-23.272-23.272h-372.351c-12.853 0-23.272 10.421-23.272 23.272v46.544c0 12.851 10.419 23.272 23.272 23.272h372.351c12.851 0 23.272-10.421 23.272-23.272v-46.544zM861.081 122.199v651.615c51.413 0 93.088-41.677 93.088-93.088v-558.528c0-102.82-83.356-186.176-186.176-186.176h-418.896c-51.411 0-93.088 41.676-93.088 93.088h511.983c51.413 0 93.088 41.676 93.088 93.088z" />
<glyph unicode="&#xe906;" glyph-name="forms" d="M204.802 959.974h614.379c56.554 0 102.396-45.844 102.396-102.396v-571.884c0.020-27.288-10.854-53.462-30.207-72.702l-246.775-246.775c-19.24-19.353-45.412-30.227-72.702-30.207h-367.091c-56.552 0-102.396 45.843-102.396 102.396v819.172c0 56.552 45.844 102.396 102.396 102.396zM281.6 755.181c-14.138 0-25.599-11.461-25.599-25.599v-51.199c0-14.138 11.461-25.599 25.599-25.599h460.784c14.136 0 25.599 11.461 25.599 25.599v51.199c0 14.138-11.463 25.599-25.599 25.599h-460.784zM537.59 447.992c14.136 0 25.599 11.463 25.599 25.599v51.199c0 14.136-11.463 25.599-25.599 25.599h-255.991c-14.138 0-25.599-11.463-25.599-25.599v-51.199c0-14.136 11.461-25.599 25.599-25.599h255.991zM563.19 243.198v-214.009l265.206 265.206h-214.009c-28.277 0-51.199-22.922-51.199-51.199z" />
<glyph unicode="&#xe907;" glyph-name="help-outlined" d="M0.035 448c0 282.751 229.214 511.965 511.965 511.965 135.784 0 266.001-53.939 362.015-149.951 96.009-96.012 149.949-226.232 149.949-362.013 0-282.747-229.216-511.965-511.965-511.965-282.751 0-511.965 229.216-511.965 511.965zM102.429 448c0-226.201 183.371-409.571 409.571-409.571 108.624 0 212.803 43.154 289.613 119.958 76.805 76.81 119.958 180.989 119.958 289.613 0 226.2-183.37 409.571-409.571 409.571s-409.571-183.371-409.571-409.571zM486.402 243.214c-14.135 0-25.598-11.463-25.598-25.598v-51.197c0-14.135 11.463-25.598 25.598-25.598h51.197c14.135 0 25.598 11.463 25.598 25.598v51.197c0 14.135-11.463 25.598-25.598 25.598h-51.197zM563.197 749.035c81.433 0 147.446-66.013 147.446-147.446l3.584-28.67c-0.43-63.791-41.699-120.122-102.392-139.766l-48.636-15.871c-3.287-0.246-5.898-2.857-6.144-6.144v-39.933c0-14.135-11.463-25.598-25.598-25.598h-38.91c-14.135 0-25.598 11.463-25.598 25.598v39.933c0.113 41.424 26.714 78.131 66.043 91.13l48.636 15.871c23.33 8.084 38.96 30.088 38.91 54.78v28.67c0 31.668-25.67 57.34-57.34 57.34h-102.392c-15.205 0-29.792-6.042-40.548-16.794-10.751-10.754-16.793-25.339-16.793-40.545v-25.598c0-14.137-11.46-25.598-25.598-25.598h-38.91c-14.137 0-25.598 11.46-25.598 25.598v25.598c0 81.432 66.013 147.446 147.446 147.446h102.392z" />
<glyph unicode="&#xe908;" glyph-name="icons" d="M847.149 821.944l149.792-269.411c36.059-65.025 36.059-144.039 0-209.064l-149.792-269.411c-38.009-68.533-110.222-111.035-188.588-110.997h-293.12c-78.367-0.038-150.58 42.465-188.588 110.997l-149.792 269.411c-36.061 65.025-36.061 144.039 0 209.064l149.792 269.411c38.009 68.533 110.221 111.036 188.588 110.997h293.12c78.366 0.038 150.579-42.464 188.588-110.997zM350.353 448c0-89.277 72.37-161.647 161.647-161.647 42.869 0 83.987 17.032 114.301 47.346s47.346 71.426 47.346 114.301c0 89.277-72.375 161.647-161.647 161.647-89.277 0-161.647-72.37-161.647-161.647z" />
<glyph unicode="&#xe909;" glyph-name="layouts" d="M409.608 89.625v716.749c0 28.275-22.922 51.197-51.197 51.197h-307.178c-28.275 0-51.197-22.922-51.197-51.197v-716.749c0-28.276 22.922-51.197 51.197-51.197h307.178c28.275 0 51.197 22.921 51.197 51.197zM563.197 396.803h102.392c28.276 0 51.197-22.921 51.197-51.197v-255.982c0-28.276-22.921-51.197-51.197-51.197h-102.392c-28.276 0-51.197 22.921-51.197 51.197v255.982c0 28.276 22.921 51.197 51.197 51.197zM972.768 396.803h-102.392c-28.276 0-51.197-22.921-51.197-51.197v-255.982c0-28.276 22.921-51.197 51.197-51.197h102.392c28.276 0 51.197 22.921 51.197 51.197v255.982c0 28.276-22.921 51.197-51.197 51.197zM563.197 857.571h409.571c28.276 0 51.197-22.922 51.197-51.197v-255.982c0-28.276-22.921-51.197-51.197-51.197h-409.571c-28.276 0-51.197 22.921-51.197 51.197v255.982c0 28.275 22.921 51.197 51.197 51.197z" />
<glyph unicode="&#xe90a;" glyph-name="project-details" d="M1024 64c0-70.694-57.306-128-128-128h-768c-70.692 0-128 57.306-128 128v768c0 70.692 57.308 128 128 128h768c70.694 0 128-57.308 128-128v-768zM896 832h-768v-768h768v768zM512 192h192c35.347 0 64 28.653 64 64s-28.653 64-64 64h-192c-35.346 0-64-28.653-64-64s28.654-64 64-64zM704 384h-192c-35.346 0-64 28.653-64 64s28.654 64 64 64h192c35.347 0 64-28.653 64-64s-28.653-64-64-64zM256 448c0-35.347 28.654-64 64-64s64 28.653 64 64c0 35.346-28.654 64-64 64s-64-28.654-64-64zM256 256c0 35.347 28.654 64 64 64s64-28.653 64-64c0-35.347-28.654-64-64-64s-64 28.653-64 64zM320 576h384c35.347 0 64 28.654 64 64s-28.653 64-64 64h-384c-35.346 0-64-28.654-64-64s28.654-64 64-64z" />
<glyph unicode="&#xe90b;" glyph-name="play" d="M960.62 458.81v-22.839c-0.065-21.746-11.518-41.868-30.18-53.017l-730.020-424.96c-44.046-26.101-66.885-26.101-86.461-14.682l-20.392 11.419c-18.175 10.849-29.553 30.228-30.18 51.387v882.542c0.067 21.742 11.518 41.861 30.18 53.017l20.392 11.419c19.576 11.419 42.415 11.419 99.51-22.023l716.969-419.247c18.662-11.159 30.115-31.281 30.18-53.017z" />
<glyph unicode="&#xe90c;" glyph-name="star" d="M10.322 532.268c-8.65 6.298-12.347 17.393-9.206 27.623l4.092 12.788c2.991 10.106 11.985 17.261 22.505 17.903l326.835 26.087 125.314 301.281c4.203 10.555 14.75 17.175 26.085 16.368h13.297c10.685 0.227 20.335-6.345 24.042-16.368l125.823-301.281 326.833-26.087c10.521-0.642 19.511-7.797 22.506-17.903l4.091-12.788c3.481-9.905 0.42-20.931-7.675-27.623l-246.531-211.767 75.7-317.649c2.493-10.168-1.337-20.843-9.717-27.114l-14.837-8.181c-8.653-5.847-19.987-5.847-28.64 0l-278.247 168.798-279.776-170.333c-8.653-5.847-19.991-5.847-28.642 0l-11.253 7.675c-8.385 6.266-12.212 16.941-9.718 27.109l73.653 319.697-246.533 211.767z" />
<glyph unicode="&#xe90d;" glyph-name="status" d="M586.2 857.172l4.471-0.304c175.83-28.287 324.578-145.39 393.354-309.665 68.77-164.28 47.809-352.427-55.428-497.544-4.92-6.764-12.76-10.777-21.12-10.818-8.546-0.041-16.897 2.282-24.144 6.645l-5.218 3.657-29.362 23.696c-10.89 8.654-12.94 24.386-4.636 35.544 82.513 114.952 100.28 264.196 47.062 395.301-53.218 131.112-169.978 225.751-309.265 250.672-10.772 1.782-18.993 10.218-20.765 20.658l-0.355 4.583v51.514c-0.248 7.639 3.204 14.928 9.272 19.575 4.45 4.077 10.2 6.351 16.134 6.486zM78.114 296.406c12.402-0.046 23.009-8.922 25.242-21.12 10.698-60.316 35.010-117.398 71.088-166.902 8.305-11.158 6.252-26.89-4.636-35.544l-29.362-23.696c-8.308-6.718-18.68-10.354-29.362-10.302-8.36 0.041-16.202 4.054-21.12 10.818-45.884 64.531-76.37 138.72-89.117 216.871-1.192 7.454 1.085 15.042 6.182 20.606 4.648 6.068 11.937 9.52 19.575 9.272h51.514zM711.458 580.136c-9.525 5.968-22.145 4.973-30.64-2.985l-257.565-212.749-4.534-4.218c-8.5-8.917-13.575-20.656-14.164-33.103-0.687-14.522 4.794-28.656 15.092-38.919l29.362-29.362 4.625-4.116c9.684-7.618 21.847-11.565 34.292-10.972 14.522 0.685 28.074 7.475 37.321 18.694l212.749 257.565 2.936 3.786c5.904 9.318 5.131 21.667-2.421 30.212l-23.181 23.181-3.874 2.985zM277.47 399.431c12.644 0 23.16-9.113 25.342-21.126l0.414-4.631v-51.514c0-12.647-9.111-23.16-21.126-25.344l-4.63-0.412h-51.514c-12.644 0-23.16 9.113-25.341 21.126l-0.415 4.631v51.514c0 12.647 9.112 23.16 21.127 25.34l4.629 0.418h51.514zM817.941 378.307c-2.179 12.013-12.698 21.126-25.34 21.126h-51.514l-4.631-0.418c-12.013-2.179-21.126-12.693-21.126-25.34v-51.514l0.412-4.631c2.184-12.013 12.698-21.126 25.344-21.126h51.514l4.631 0.412c12.013 2.184 21.126 12.698 21.126 25.344v51.514l-0.418 4.631zM427.89 856.352c7.449 1.192 15.036-1.084 20.606-6.182 4.852-3.719 8.031-9.126 8.984-15.052l0.289-4.523v-51.514c0.129-12.646-9.118-23.436-21.636-25.242-169.431-31.294-301.996-163.86-333.291-333.289-1.782-10.772-10.218-18.993-20.658-20.765l-4.583-0.355h-51.514c-7.548-0.371-14.82 2.884-19.575 8.757-5.096 5.563-7.373 13.152-6.182 20.606 35.088 219.971 207.587 392.471 427.56 427.558zM560.376 635.871c-2.179 12.015-12.698 21.126-25.34 21.126h-51.514l-4.631-0.414c-12.013-2.182-21.126-12.698-21.126-25.342v-51.514l0.412-4.629c2.184-12.015 12.698-21.126 25.344-21.126h51.514l4.631 0.414c12.013 2.18 21.126 12.696 21.126 25.341v51.514l-0.418 4.63z" />
<glyph unicode="&#xe90e;" glyph-name="unlock" d="M307.213 652.785v-102.396h511.98c56.554 0 102.396-45.843 102.396-102.396v-409.585c0-56.554-45.843-102.396-102.396-102.396h-614.376c-56.552 0-102.396 45.843-102.396 102.396v409.585c0 56.554 45.844 102.396 102.396 102.396v102.396c0 169.656 137.533 307.189 307.187 307.189 169.656 0 307.189-137.533 307.189-307.189h-102.396c0 113.104-91.685 204.793-204.793 204.793-113.102 0-204.791-91.689-204.791-204.793zM691.192 294.397c-14.136 0-25.599-11.458-25.599-25.599v-51.199c0-14.136 11.463-25.599 25.599-25.599h51.199c14.142 0 25.599 11.463 25.599 25.599v51.199c0 14.142-11.458 25.599-25.599 25.599h-51.199zM460.805 268.798v-51.199c0-14.136 11.463-25.599 25.599-25.599h51.199c14.142 0 25.599 11.463 25.599 25.599v51.199c0 14.142-11.458 25.599-25.599 25.599h-51.199c-14.136 0-25.599-11.458-25.599-25.599zM256.007 268.798v-51.199c0-14.136 11.461-25.599 25.599-25.599h51.199c14.138 0 25.599 11.463 25.599 25.599v51.199c0 14.142-11.461 25.599-25.599 25.599h-51.199c-14.138 0-25.599-11.458-25.599-25.599z" />
<glyph unicode="&#xe90f;" glyph-name="verified" d="M1004.078 507.125c-14.86-38.192-14.86-80.565 0-118.757l8.708-25.083c31.711-82.817-6.691-175.986-87.563-212.432l-23.040-10.237c-37.797-16.283-68.372-45.758-86.022-82.925l-10.243-23.035c-36.456-80.841-129.654-119.232-212.498-87.532l-23.557 8.702c-38.202 14.855-80.59 14.855-118.793 0l-23.557-8.702c-82.845-31.7-176.043 6.691-212.5 87.532l-10.241 23.035c-16.289 37.782-45.774 68.352-82.952 85.996l-23.042 10.237c-80.868 36.447-119.271 129.614-87.56 212.432l8.704 23.547c14.86 38.192 14.86 80.565 0 118.757l-8.704 23.547c-31.71 82.818 6.692 175.987 87.56 212.432l23.042 10.237c36.643 16.89 66.057 46.294 82.952 82.925l11.778 23.035c36.497 81.653 130.756 120.202 214.035 87.532l23.557-8.702c38.202-14.855 80.59-14.855 118.793 0l23.557 8.702c82.844 31.7 176.042-6.691 212.498-87.532l10.243-23.035c16.892-36.631 46.305-66.035 82.95-82.925l23.040-11.773c80.872-36.445 119.274-129.614 87.563-212.432l-8.708-23.547zM446.97 276.266l287.77 287.679c9.429 9.887 9.429 25.433 0 35.32l-27.135 27.129c-9.957 9.755-25.891 9.755-35.847 0l-242.71-242.633-76.807 76.27c-4.647 4.95-11.133 7.755-17.922 7.755s-13.276-2.805-17.922-7.755l-27.139-27.129c-4.847-4.806-7.574-11.348-7.574-18.172s2.726-13.365 7.574-18.172l121.868-120.293c4.648-4.95 11.133-7.755 17.922-7.755s13.279 2.805 17.922 7.755z" />
<glyph unicode="&#xe910;" glyph-name="wink" d="M512 959.965c-282.751 0-511.965-229.214-511.965-511.965 0-282.747 229.214-511.965 511.965-511.965 282.747 0 511.965 229.216 511.965 511.965 0 135.781-53.941 266.001-149.949 362.013-96.014 96.011-226.232 149.951-362.015 149.951zM512 38.429c-226.2 0-409.571 183.37-409.571 409.571s183.371 409.571 409.571 409.571c226.201 0 409.571-183.371 409.571-409.571 0-108.624-43.154-212.803-119.958-289.613-76.81-76.805-180.989-119.958-289.613-119.958zM563.197 550.392c0 56.55 45.842 102.392 102.392 102.392s102.392-45.843 102.392-102.392v-25.598c0-14.135-11.463-25.598-25.598-25.598h-153.589c-14.135 0-25.598 11.463-25.598 25.598v25.598zM732.145 345.608l-44.541 26.11c-11.217 6.277-25.337 3.451-33.277-6.656-33.661-44.705-86.369-70.994-142.326-70.994s-108.666 26.289-142.326 70.994c-7.942 10.106-22.059 12.933-33.277 6.656l-44.541-26.11c-6.268-3.675-10.721-9.799-12.287-16.895-1.521-6.937-0.034-14.191 4.095-19.967 52.796-73.554 137.795-117.173 228.336-117.173s175.537 43.619 228.336 117.173c4.131 5.775 5.617 13.030 4.095 19.967-1.567 7.096-6.021 13.219-12.287 16.895zM460.803 524.795c0-14.135-11.463-25.598-25.598-25.598h-153.589c-14.137 0-25.598 11.463-25.598 25.598v51.197c0 14.137 11.46 25.598 25.598 25.598h153.589c14.135 0 25.598-11.46 25.598-25.598v-51.197z" />
<glyph unicode="&#xe911;" glyph-name="question-circle-solid" d="M1008 448c0-273.994-222.086-496-496-496s-496 222.006-496 496c0 273.834 222.086 496 496 496s496-222.166 496-496zM525.31 780c-108.994 0-178.51-45.914-233.098-127.516-7.072-10.572-4.706-24.83 5.43-32.516l69.398-52.62c10.41-7.894 25.242-6.016 33.33 4.244 35.728 45.316 60.226 71.594 114.606 71.594 40.858 0 91.396-26.296 91.396-65.916 0-29.952-24.726-45.334-65.068-67.952-47.048-26.374-109.304-59.2-109.304-141.318v-8c0-13.254 10.746-24 24-24h112c13.254 0 24 10.746 24 24v2.666c0 56.924 166.372 59.294 166.372 213.334 0 116.004-120.33 204-233.062 204zM512 284c-50.73 0-92-41.27-92-92 0-50.728 41.27-92 92-92s92 41.272 92 92c0 50.73-41.27 92-92 92z" />
<glyph unicode="&#xe912;" glyph-name="times-solid" horiz-adv-x="704" d="M485.44 448l200.14 200.14c24.56 24.56 24.56 64.38 0 88.96l-44.48 44.48c-24.56 24.56-64.38 24.56-88.96 0l-200.14-200.14-200.14 200.14c-24.56 24.56-64.38 24.56-88.96 0l-44.48-44.48c-24.56-24.56-24.56-64.38 0-88.96l200.14-200.14-200.14-200.14c-24.56-24.56-24.56-64.38 0-88.96l44.48-44.48c24.56-24.56 64.4-24.56 88.96 0l200.14 200.14 200.14-200.14c24.56-24.56 64.4-24.56 88.96 0l44.48 44.48c24.56 24.56 24.56 64.38 0 88.96l-200.14 200.14z" />
<glyph unicode="&#xe913;" glyph-name="back" d="M402.752 82.752l-320 320c-24.992 24.992-24.992 65.504 0 90.496l320 320c24.992 24.992 65.504 24.992 90.496 0s24.992-65.504 0-90.496l-210.752-210.752h613.504c35.36 0 64-28.64 64-64s-28.64-64-64-64h-613.504l210.752-210.752c12.48-12.48 18.752-28.864 18.752-45.248s-6.24-32.768-18.752-45.248c-24.992-24.992-65.504-24.992-90.496 0z" />
<glyph unicode="&#xe914;" glyph-name="unlink-solid" d="M608.166 148.186c9.372-9.372 9.372-24.568 0-33.942l-89.348-89.348c-118.526-118.524-311.386-118.532-429.922 0-118.528 118.53-118.528 311.392 0 429.92l89.35 89.35c9.372 9.372 24.568 9.372 33.942 0l79.196-79.196c9.372-9.372 9.372-24.568 0-33.942l-89.35-89.348c-56.144-56.146-56.144-147.5 0-203.646 56.144-56.144 147.5-56.146 203.648 0l89.348 89.348c9.372 9.372 24.568 9.372 33.942 0l79.194-79.196zM495.030 668.618c9.372-9.372 24.568-9.372 33.942 0l89.348 89.348c56.144 56.15 147.5 56.146 203.648 0 56.144-56.146 56.144-147.5 0-203.646l-89.35-89.348c-9.372-9.372-9.372-24.568 0-33.942l79.196-79.196c9.372-9.372 24.568-9.372 33.942 0l89.35 89.35c118.53 118.53 118.53 311.39 0 429.92-118.532 118.528-311.39 118.528-429.922 0l-89.348-89.348c-9.372-9.372-9.372-24.568 0-33.942l79.194-79.196zM964.686-49.942l45.254 45.254c18.746 18.746 18.746 49.138 0 67.882l-882.744 882.748c-18.746 18.746-49.138 18.746-67.882 0l-45.256-45.256c-18.746-18.746-18.746-49.138 0-67.882l882.746-882.746c18.746-18.744 49.138-18.744 67.882 0z" />
<glyph unicode="&#xe915;" glyph-name="info-circle" horiz-adv-x="878" d="M585.143 173.714v91.429c0 10.286-8 18.286-18.286 18.286h-54.857v292.571c0 10.286-8 18.286-18.286 18.286h-182.857c-10.286 0-18.286-8-18.286-18.286v-91.429c0-10.286 8-18.286 18.286-18.286h54.857v-182.857h-54.857c-10.286 0-18.286-8-18.286-18.286v-91.429c0-10.286 8-18.286 18.286-18.286h256c10.286 0 18.286 8 18.286 18.286zM512 685.714v91.429c0 10.286-8 18.286-18.286 18.286h-109.714c-10.286 0-18.286-8-18.286-18.286v-91.429c0-10.286 8-18.286 18.286-18.286h109.714c10.286 0 18.286 8 18.286 18.286zM877.714 448c0-242.286-196.571-438.857-438.857-438.857s-438.857 196.571-438.857 438.857 196.571 438.857 438.857 438.857 438.857-196.571 438.857-438.857z" />
<glyph unicode="&#xe916;" glyph-name="plus-square-solid" horiz-adv-x="896" d="M800 896h-704c-53 0-96-43-96-96v-704c0-53 43-96 96-96h704c53 0 96 43 96 96v704c0 53-43 96-96 96zM736 392c0-13.2-10.8-24-24-24h-184v-184c0-13.2-10.8-24-24-24h-112c-13.2 0-24 10.8-24 24v184h-184c-13.2 0-24 10.8-24 24v112c0 13.2 10.8 24 24 24h184v184c0 13.2 10.8 24 24 24h112c13.2 0 24-10.8 24-24v-184h184c13.2 0 24-10.8 24-24v-112z" />
<glyph unicode="&#xe917;" glyph-name="list-alt-solid" d="M928 0h-832c-53.020 0-96 42.98-96 96v704c0 53.020 42.98 96 96 96h832c53.020 0 96-42.98 96-96v-704c0-53.020-42.98-96-96-96zM256 720c-44.182 0-80-35.818-80-80s35.818-80 80-80 80 35.818 80 80-35.818 80-80 80zM256 528c-44.182 0-80-35.818-80-80s35.818-80 80-80 80 35.818 80 80-35.818 80-80 80zM256 336c-44.182 0-80-35.818-80-80s35.818-80 80-80 80 35.818 80 80-35.818 80-80 80zM832 608v64c0 13.254-10.746 24-24 24h-400c-13.254 0-24-10.746-24-24v-64c0-13.254 10.746-24 24-24h400c13.254 0 24 10.746 24 24zM832 416v64c0 13.254-10.746 24-24 24h-400c-13.254 0-24-10.746-24-24v-64c0-13.254 10.746-24 24-24h400c13.254 0 24 10.746 24 24zM832 224v64c0 13.254-10.746 24-24 24h-400c-13.254 0-24-10.746-24-24v-64c0-13.254 10.746-24 24-24h400c13.254 0 24 10.746 24 24z" />
<glyph unicode="&#xe918;" glyph-name="file-import-solid" d="M32 384c-17.6 0-32-14.4-32-32v-64c0-17.6 14.4-32 32-32h224v128zM1010 750l-195.8 196c-9 9-21.2 14-34 14h-12.2v-256h256v12.2c0 12.6-5 24.8-14 33.8zM704 688v272h-400c-26.6 0-48-21.4-48-48v-528h256v130.4c0 28.6 34.6 42.8 54.8 22.6l191.2-193c13.2-13.4 13.2-34.8 0-48l-191.4-192.8c-20.2-20.2-54.8-6-54.8 22.6v130.2h-255.8v-272c0-26.6 21.4-48 48-48h672c26.6 0 48 21.4 48 48v656h-272c-26.4 0-48 21.6-48 48z" />
<glyph unicode="&#xe919;" glyph-name="horizontal-space-evenly" d="M987.429 960c-20.199 0-36.571-16.373-36.571-36.571v-950.857c0-20.198 16.373-36.571 36.571-36.571s36.571 16.374 36.571 36.571v950.857c0 20.199-16.373 36.571-36.571 36.571zM36.571 960c20.198 0 36.571-16.373 36.571-36.571v-950.857c0-20.198-16.374-36.571-36.571-36.571s-36.571 16.374-36.571 36.571v950.857c0 20.199 16.374 36.571 36.571 36.571zM365.714 740.571c20.199 0 36.571-16.373 36.571-36.571v-512c0-20.198-16.373-36.571-36.571-36.571h-109.714c-20.198 0-36.571 16.374-36.571 36.571v512c0 20.199 16.374 36.571 36.571 36.571h109.714zM621.714 704c0 20.199 16.373 36.571 36.571 36.571h109.714c20.199 0 36.571-16.373 36.571-36.571v-512c0-20.198-16.373-36.571-36.571-36.571h-109.714c-20.199 0-36.571 16.374-36.571 36.571v512z" />
<glyph unicode="&#xe91a;" glyph-name="horizontal-space-between" d="M987.429 960c-20.199 0-36.571-16.373-36.571-36.571v-109.714c0-20.199 16.373-36.571 36.571-36.571s36.571 16.373 36.571 36.571v109.714c0 20.199-16.373 36.571-36.571 36.571zM987.429 118.857c-20.199 0-36.571-16.374-36.571-36.571v-109.714c0-20.198 16.373-36.571 36.571-36.571s36.571 16.374 36.571 36.571v109.714c0 20.198-16.373 36.571-36.571 36.571zM0 82.286c0 20.198 16.374 36.571 36.571 36.571s36.571-16.374 36.571-36.571v-109.714c0-20.198-16.374-36.571-36.571-36.571s-36.571 16.374-36.571 36.571v109.714zM36.571 960c-20.198 0-36.571-16.373-36.571-36.571v-109.714c0-20.199 16.374-36.571 36.571-36.571s36.571 16.373 36.571 36.571v109.714c0 20.199-16.374 36.571-36.571 36.571zM146.286 740.571c20.198 0 36.571-16.373 36.571-36.571v-512c0-20.198-16.374-36.571-36.571-36.571h-109.714c-20.198 0-36.571 16.374-36.571 36.571v512c0 20.199 16.374 36.571 36.571 36.571h109.714zM841.143 704c0 20.199 16.373 36.571 36.571 36.571h109.714c20.199 0 36.571-16.373 36.571-36.571v-512c0-20.198-16.373-36.571-36.571-36.571h-109.714c-20.199 0-36.571 16.374-36.571 36.571v512z" />
<glyph unicode="&#xe91b;" glyph-name="horizontal-space-around" d="M987.429 960c-20.199 0-36.571-16.373-36.571-36.571v-950.857c0-20.198 16.373-36.571 36.571-36.571s36.571 16.374 36.571 36.571v950.857c0 20.199-16.373 36.571-36.571 36.571zM36.571 960c20.198 0 36.571-16.373 36.571-36.571v-950.857c0-20.198-16.374-36.571-36.571-36.571s-36.571 16.374-36.571 36.571v950.857c0 20.199 16.374 36.571 36.571 36.571zM292.571 740.571c20.199 0 36.571-16.373 36.571-36.571v-512c0-20.198-16.373-36.571-36.571-36.571h-109.714c-20.198 0-36.571 16.374-36.571 36.571v512c0 20.199 16.374 36.571 36.571 36.571h109.714zM694.857 704c0 20.199 16.373 36.571 36.571 36.571h109.714c20.199 0 36.571-16.373 36.571-36.571v-512c0-20.198-16.373-36.571-36.571-36.571h-109.714c-20.199 0-36.571 16.374-36.571 36.571v512z" />
<glyph unicode="&#xe91c;" glyph-name="space-around" d="M1024-27.429c0 20.199-16.373 36.571-36.571 36.571h-950.857c-20.198 0-36.571-16.373-36.571-36.571s16.374-36.571 36.571-36.571h950.857c20.199 0 36.571 16.373 36.571 36.571zM1024 923.429c0-20.198-16.373-36.571-36.571-36.571h-950.857c-20.198 0-36.571 16.374-36.571 36.571s16.374 36.571 36.571 36.571h950.857c20.199 0 36.571-16.374 36.571-36.571zM804.571 667.429c0-20.199-16.373-36.571-36.571-36.571h-512c-20.198 0-36.571 16.373-36.571 36.571v109.714c0 20.198 16.374 36.571 36.571 36.571h512c20.199 0 36.571-16.374 36.571-36.571v-109.714zM768 265.143c20.199 0 36.571-16.373 36.571-36.571v-109.714c0-20.199-16.373-36.571-36.571-36.571h-512c-20.198 0-36.571 16.373-36.571 36.571v109.714c0 20.199 16.374 36.571 36.571 36.571h512z" />
<glyph unicode="&#xe91d;" glyph-name="space-between" d="M1024-27.429c0 20.199-16.373 36.571-36.571 36.571h-109.714c-20.199 0-36.571-16.373-36.571-36.571s16.373-36.571 36.571-36.571h109.714c20.199 0 36.571 16.373 36.571 36.571zM182.857-27.429c0 20.199-16.374 36.571-36.571 36.571h-109.714c-20.198 0-36.571-16.373-36.571-36.571s16.374-36.571 36.571-36.571h109.714c20.198 0 36.571 16.373 36.571 36.571zM146.286 960c20.198 0 36.571-16.374 36.571-36.571s-16.374-36.571-36.571-36.571h-109.714c-20.198 0-36.571 16.374-36.571 36.571s16.374 36.571 36.571 36.571h109.714zM1024 923.429c0 20.198-16.373 36.571-36.571 36.571h-109.714c-20.199 0-36.571-16.374-36.571-36.571s16.373-36.571 36.571-36.571h109.714c20.199 0 36.571 16.374 36.571 36.571zM804.571 813.714c0-20.198-16.373-36.571-36.571-36.571h-512c-20.198 0-36.571 16.374-36.571 36.571v109.714c0 20.198 16.374 36.571 36.571 36.571h512c20.199 0 36.571-16.374 36.571-36.571v-109.714zM768 118.857c20.199 0 36.571-16.373 36.571-36.571v-109.714c0-20.199-16.373-36.571-36.571-36.571h-512c-20.198 0-36.571 16.373-36.571 36.571v109.714c0 20.199 16.374 36.571 36.571 36.571h512z" />
<glyph unicode="&#xe91e;" glyph-name="space-evenly" d="M1024-27.429c0 20.199-16.373 36.571-36.571 36.571h-950.857c-20.198 0-36.571-16.373-36.571-36.571s16.374-36.571 36.571-36.571h950.857c20.199 0 36.571 16.373 36.571 36.571zM1024 923.429c0-20.198-16.373-36.571-36.571-36.571h-950.857c-20.198 0-36.571 16.374-36.571 36.571s16.374 36.571 36.571 36.571h950.857c20.199 0 36.571-16.374 36.571-36.571zM804.571 594.286c0-20.199-16.373-36.571-36.571-36.571h-512c-20.198 0-36.571 16.373-36.571 36.571v109.714c0 20.198 16.374 36.571 36.571 36.571h512c20.199 0 36.571-16.374 36.571-36.571v-109.714zM768 338.286c20.199 0 36.571-16.373 36.571-36.571v-109.714c0-20.199-16.373-36.571-36.571-36.571h-512c-20.198 0-36.571 16.373-36.571 36.571v109.714c0 20.199 16.374 36.571 36.571 36.571h512z" />
<glyph unicode="&#xe91f;" glyph-name="file-upload-solid" d="M576 688v272h-400c-26.6 0-48-21.4-48-48v-928c0-26.6 21.4-48 48-48h672c26.6 0 48 21.4 48 48v656h-272c-26.4 0-48 21.6-48 48zM706.36 255.98h-130.36v-160c0-17.68-14.32-32-32-32h-64c-17.68 0-32 14.32-32 32v160h-130.36c-28.56 0-42.82 34.58-22.54 54.72l192.84 191.4c13.3 13.22 34.78 13.22 48.080 0l192.84-191.4c20.3-20.14 6.060-54.72-22.5-54.72zM882 750l-195.8 196c-9 9-21.2 14-34 14h-12.2v-256h256v12.2c0 12.6-5 24.8-14 33.8z" />
<glyph unicode="&#xe920;" glyph-name="widget" d="M896-64h-768c-70.692 0-128 57.306-128 128v768c0 70.692 57.308 128 128 128h768c70.694 0 128-57.308 128-128v-768c0-70.694-57.306-128-128-128zM896 832h-768v-768h768v768zM752 128h-95.994c-44.184 0-80.001 35.814-80.001 80v160.006c0 44.182 35.817 80 80.001 80h95.994c44.186 0 80-35.818 80-80v-160.006c0-44.186-35.814-80-80-80zM752 512h-95.994c-44.184 0-80.001 35.817-80.001 80v96c0 44.183 35.817 80 80.001 80h95.994c44.186 0 80-35.817 80-80v-96c0-44.183-35.814-80-80-80zM432 128h-160c-44.183 0-80 35.814-80 80v480c0 44.183 35.817 80 80 80h160c44.183 0 80-35.817 80-80v-480c0-44.186-35.817-80-80-80z" />
<glyph unicode="&#xe921;" glyph-name="content" d="M1024 64c0-70.694-57.306-128-128-128h-768c-70.692 0-128 57.306-128 128v768c0 70.692 57.308 128 128 128h768c70.694 0 128-57.308 128-128v-768zM896 832h-768v-768h768v768zM512 192h192c35.347 0 64 28.653 64 64s-28.653 64-64 64h-192c-35.346 0-64-28.653-64-64s28.654-64 64-64zM704 384h-384c-35.346 0-64 28.653-64 64s28.654 64 64 64h384c35.347 0 64-28.654 64-64s-28.653-64-64-64zM640 640c0-35.346 28.653-64 64-64s64 28.654 64 64c0 35.346-28.653 64-64 64s-64-28.654-64-64zM256 256c0 35.347 28.654 64 64 64s64-28.653 64-64c0-35.347-28.654-64-64-64s-64 28.653-64 64zM320 576h192c35.347 0 64 28.654 64 64s-28.654 64-64 64h-192c-35.346 0-64-28.654-64-64s28.654-64 64-64z" />
<glyph unicode="&#xe922;" glyph-name="slider" d="M895.993-63.993h-768c-70.692 0-128 57.306-128 128v384c0 70.692 57.308 128 128 128h768c70.694 0 128-57.308 128-128v-384c0-70.694-57.306-128-128-128zM895.993 448.007h-768v-384h768v384zM63.993 448.007h896v192c0 70.692-57.306 128-128 128h-640c-70.692 0-128-57.308-128-128v-192zM191.993 640.007h640v-64h-640v64zM127.993 640.007h768v192c0 70.692-57.306 128-128 128h-512c-70.692 0-128-57.308-128-128v-192zM255.993 832.007h512v-64h-512v64z" />
<glyph unicode="&#xe923;" glyph-name="breadcrumb" d="M752.993 864h-240.993l240.993-402.133-240.993-429.867h240.993l258.207 429.867-258.207 402.133zM253.793 864h-240.993l240.993-402.133-240.993-429.867h240.993l258.207 429.867-258.207 402.133z" />
<glyph unicode="&#xe924;" glyph-name="icon-move" d="M575.488 770.528v-258.016h256v128l192.512-192.512-192.512-192.48v130.976h-256v-258.016h128.992l-192.48-192.48-192.512 192.48h128v258.016h-256v-129.984l-191.488 191.488 191.488 191.488v-126.976h256v258.016h-124.992l189.504 189.472 189.504-189.472h-126.016z" />
<glyph unicode="&#xe925;" glyph-name="arrange" horiz-adv-x="614" d="M512-64c56.553 0 102.4 45.847 102.4 102.4s-45.847 102.4-102.4 102.4c-56.553 0-102.4-45.847-102.4-102.4s45.847-102.4 102.4-102.4zM512 345.6c56.553 0 102.4 45.847 102.4 102.4s-45.847 102.4-102.4 102.4c-56.553 0-102.4-45.847-102.4-102.4s45.847-102.4 102.4-102.4zM512 755.2c56.553 0 102.4 45.847 102.4 102.4s-45.847 102.4-102.4 102.4c-56.553 0-102.4-45.846-102.4-102.4s45.847-102.4 102.4-102.4zM102.4-64c56.553 0 102.4 45.847 102.4 102.4s-45.847 102.4-102.4 102.4c-56.554 0-102.4-45.847-102.4-102.4s45.846-102.4 102.4-102.4zM102.4 345.6c56.553 0 102.4 45.847 102.4 102.4s-45.847 102.4-102.4 102.4c-56.554 0-102.4-45.847-102.4-102.4s45.846-102.4 102.4-102.4zM102.4 755.2c56.553 0 102.4 45.847 102.4 102.4s-45.847 102.4-102.4 102.4c-56.554 0-102.4-45.846-102.4-102.4s45.846-102.4 102.4-102.4z" />
<glyph unicode="&#xe926;" glyph-name="audio" d="M860.9 891.1h-691.4c-55.8 0-101.1-45.3-101.1-101.1v-685.4c0-55.8 45.3-101.1 101.1-101.1h691.4c55.8 0 101.1 45.3 101.1 101.1v685.4c0 55.8-45.3 101.1-101.1 101.1zM920.7 112.4c0-36-29.2-65.2-65.2-65.2h-677.9c-36 0-65.2 29.2-65.2 65.2v672.5c0 36 29.2 65.2 65.2 65.2h677.9c36 0 65.2-29.2 65.2-65.2v-672.5zM639 231c0-32.2-38.9-48.3-61.7-25.6l-107 108.4h-84.4c-20 0-36.2 16.2-36.2 36.2v168.8c0 20 16.2 36.2 36.2 36.2h84.4l107 111.3c22.8 22.8 61.7 6.6 61.7-25.6v-409.7z" />
<glyph unicode="&#xe927;" glyph-name="privacy" horiz-adv-x="896" d="M767.8 343.403l47.8 125.2c8 21-7.4 43.4-30 43.4h-117c22 37.8 35.6 81.2 35.6 128v0.6c78.4 15.6 128 38.2 128 63.4 0 26.6-54.6 50.2-140.2 66-18.4 65.6-54 131.6-81.2 165.6-19 23.8-51.8 31.2-79 17.6l-55.2-27.6c-18-9-39.2-9-57.2 0l-55.2 27.6c-27.2 13.6-60 6.2-79-17.6-27-34-62.8-100-81.2-165.6-85.4-15.8-140-39.4-140-66 0-25.2 49.6-47.8 128-63.4v-0.6c0-46.8 13.6-90.2 35.6-128h-115c-23 0-38.4-23.4-29.4-44.6l51.6-120.4c-80.2-46.6-134.8-132.4-134.8-231.8v-89.6c0-49.4 40.2-89.6 89.6-89.6h716.8c49.4 0 89.6 40.2 89.6 89.6v89.6c0 96.8-51.6 180.8-128.2 228.2zM352 0.003l-83.2 384 99.2-64 48-80-64-240zM544 0.003l-64 240 48 80 99.2 64-83.2-384zM627.4 597.003c-7.8-23.8-14-49.2-33-66.8-20.2-18.6-96-44.8-128 50-5.6 16.8-30.8 16.8-36.6 0-34-100.4-112-64.8-128-50-19 17.6-25.4 43-33 66.8-1.6 5-12.6 11.4-12.6 11.6v21.6c56.6-7.2 122-11.6 192-11.6s135.4 4.2 192 11.6v-21.6c-0.2-0.2-11.2-6.4-12.8-11.6z" />
<glyph unicode="&#xe928;" glyph-name="meta-data" d="M37.36 505.875l388.515 388.562c36.47 36.473 101.696 63.776 153.514 64.029l317.117 1.548c70.128 0.342 127.837-56.965 127.494-127.507l-1.549-317.157c-0.253-51.53-27.402-116.906-64.022-153.53l-388.515-388.563c-49.414-49.421-130.454-49.83-180.106-0.176l-352.624 352.666c-49.664 49.67-49.553 130.394 0.176 180.128zM479.802 63.622l-0.003 0.006 388.387 388.435c12.794 12.794 26.557 45.939 26.646 63.907l1.542 316.404 0.752 0.004c-0.637-0.003-0.749 0.108-0.746 0.746l-0.006-0.749-316.368-1.545c-18.131-0.088-51.168-13.917-63.898-26.648l-388.418-388.465-0.273 0.272c0.228-0.227 0.228-0.317 0.176-0.368l0.097 0.096 352.066-352.109c-0.013-0.026-0.038-0.061-0.086-0.109l0.096 0.099 0.275-0.275c-0.163 0.163-0.218 0.259-0.24 0.298zM640 672.016c0-53.020 42.979-96 96-96s96 42.979 96 96c0 53.019-42.979 96-96 96s-96-42.981-96-96zM364.918 346.192l203.645 203.645c18.746 18.746 18.746 49.139 0 67.885-18.742 18.742-49.136 18.742-67.882 0l-203.646-203.648c-18.745-18.746-18.745-49.136 0-67.882s49.137-18.746 67.883 0zM591.2 346.192l90.509 90.509c18.746 18.746 18.746 49.136 0 67.882s-49.136 18.746-67.882 0l-90.512-90.509c-18.742-18.746-18.742-49.136 0-67.882 18.746-18.746 49.139-18.746 67.885 0zM478.058 233.050v0c18.746 18.746 18.746 49.139 0 67.882-18.746 18.746-49.136 18.746-67.882 0v0c-18.746-18.742-18.746-49.136 0-67.882s49.136-18.746 67.882 0z" />
<glyph unicode="&#xe929;" glyph-name="FB_logo_black-solid-1" horiz-adv-x="926" d="M463.622-55.531c-16.126 0-31.849 4.031-45.556 12.094l-364.447 206.816c-28.22 16.126-45.959 45.959-45.959 78.211v413.631c0 32.252 17.335 62.085 45.959 78.211l364.447 206.816c13.707 7.66 29.43 11.691 45.556 11.691s31.849-4.031 45.556-12.094l364.447-206.816c28.22-16.126 45.556-45.959 45.556-78.211v-413.631c0-32.252-17.335-62.085-45.959-78.211l-364.044-206.816c-13.707-7.66-29.43-11.691-45.556-11.691zM463.622 905.175c-7.66 0-15.32-2.016-22.173-5.644l-364.044-207.219c-13.707-7.66-21.77-21.77-21.77-37.090v-413.631c0-15.32 8.466-29.43 21.77-37.090l364.447-206.816c12.901-7.257 31.043-7.257 44.346 0l364.447 206.816c13.707 7.66 21.77 21.77 21.77 37.090v413.631c0 15.32-8.466 29.43-21.77 37.090l-364.447 206.816c-7.257 4.031-14.917 6.047-22.576 6.047zM393.474 106.938c-8.869 0-17.335 2.419-24.995 7.257l-252.372 156.825c-14.11 8.869-22.576 24.592-22.576 41.524s8.466 32.655 22.576 41.524l41.121 26.205-41.121 26.205c-14.11 8.869-22.576 24.592-22.576 41.524s8.466 32.655 22.576 41.524l41.121 26.205-41.121 26.205c-14.11 8.869-22.576 24.592-22.576 41.524s8.466 32.655 22.576 41.524l252.775 157.228c7.66 4.838 16.126 7.257 24.995 7.257 26.205 0 47.572-21.77 47.572-48.781v-74.986c0-16.932-8.466-32.655-22.576-41.524l-175.37-108.447 63.294-40.315 131.83 83.452c14.917 9.676 35.074 9.676 50.394 0l131.83-83.452 63.294 40.315-174.967 108.044c-14.11 8.869-22.576 24.995-22.576 41.524v74.986c0 13.304 5.241 25.802 14.513 35.074 8.869 8.869 20.964 13.707 33.461 13.707 8.869 0 17.335-2.419 24.995-7.257l252.372-156.825c14.11-8.869 22.576-24.592 22.576-41.524s-8.466-32.655-22.576-41.524l-41.121-26.205 41.121-26.205c14.11-8.869 22.576-24.592 22.576-41.524s-8.466-32.655-22.576-41.524l-41.121-26.205 41.121-26.205c14.11-8.869 22.576-24.592 22.576-41.524s-8.466-32.655-22.576-41.524l-252.775-157.228c-7.66-4.838-16.126-7.257-24.995-7.257-26.205 0-47.572 21.77-47.572 48.781v74.986c0 16.932 8.466 32.655 22.576 41.524l174.967 108.447-63.294 40.315-131.83-83.452c-14.917-9.676-35.074-9.676-50.394 0l-131.83 83.452-63.294-40.315 174.967-108.044c14.11-8.869 22.576-24.995 22.576-41.524v-74.986c0.403-27.011-20.964-48.781-47.572-48.781zM200.365 353.263l-60.069-37.896c-0.806-0.403-1.209-1.209-1.209-2.419s0.403-2.016 1.209-2.419l252.372-156.825c0.403-0.403 0.806-0.403 0.806-0.403s2.016 0.403 2.016 2.419v74.986c0 1.209-0.403 2.016-1.209 2.419l-193.915 120.139zM726.879 353.263l-194.318-120.139c-0.403-0.403-0.806-1.209-0.806-2.419v-74.986c0-2.419 2.016-2.419 2.016-2.419s0.403 0 0.806 0.403l252.775 157.228c0.403 0.403 0.806 1.209 0.806 2.419s-0.403 2.016-1.209 2.419l-60.069 37.493zM349.934 448.003l112.882-71.761c0.403 0 1.209 0 1.613 0l112.882 71.761-112.882 71.761c-0.403 0-1.209 0-1.613 0l-112.882-71.761zM663.584 448.003l63.698-40.315 59.666 37.896c0.806 0.403 1.209 1.209 1.209 2.419s-0.403 2.016-1.209 2.419l-59.666 37.896-63.698-40.315zM200.365 488.721l-59.666-37.896c-0.806-0.403-1.209-1.209-1.209-2.419s0.403-2.016 1.209-2.419l59.666-37.896 63.698 40.315-63.698 40.315zM393.474 743.109c0 0-0.403 0-0.806-0.403l-252.775-157.228c-0.403-0.403-0.806-1.209-0.806-2.419s0.403-2.016 1.209-2.419l60.069-37.896 194.318 120.139c0.403 0.403 0.806 1.209 0.806 2.419v75.389c0 2.419-2.016 2.419-2.016 2.419zM533.77 743.109c-0.403 0-0.806 0-1.209-0.403s-0.806-1.613-0.806-2.016v-74.986c0-1.209 0.403-2.016 1.209-2.419l193.915-120.139 60.069 37.896c0.806 0.403 1.209 1.209 1.209 2.419s-0.403 2.016-1.209 2.419l-252.372 156.825c-0.806 0.403-0.806 0.403-0.806 0.403z" />
<glyph unicode="&#xe92a;" glyph-name="calendar-check-regular" horiz-adv-x="896" d="M800 832.003h-96v104c0 13.254-10.746 24-24 24h-80c-13.254 0-24-10.746-24-24v-104h-256v104c0 13.254-10.746 24-24 24h-80c-13.254 0-24-10.746-24-24v-104h-96c-53.020 0-96-42.98-96-96v-704c0-53.020 42.98-96 96-96h704c53.020 0 96 42.98 96 96v704c0 53.020-42.98 96-96 96zM788 32.003h-680c-6.627 0-12 5.373-12 12v0 596h704v-596c0-6.627-5.373-12-12-12v0zM682.302 433.303l-284.618-282.338c-9.41-9.334-24.606-9.274-33.942 0.136l-150.182 151.398c-9.334 9.41-9.274 24.606 0.136 33.942l45.438 45.072c9.41 9.334 24.606 9.274 33.94-0.138l88.208-88.922 222.144 220.362c9.41 9.334 24.606 9.274 33.942-0.136l45.072-45.436c9.334-9.41 9.272-24.606-0.138-33.94z" />
<glyph unicode="&#xe92b;" glyph-name="calendar-alt-regular" horiz-adv-x="896" d="M296 384.003h-80c-13.2 0-24 10.8-24 24v80c0 13.2 10.8 24 24 24h80c13.2 0 24-10.8 24-24v-80c0-13.2-10.8-24-24-24zM512 408.003v80c0 13.2-10.8 24-24 24h-80c-13.2 0-24-10.8-24-24v-80c0-13.2 10.8-24 24-24h80c13.2 0 24 10.8 24 24zM704 408.003v80c0 13.2-10.8 24-24 24h-80c-13.2 0-24-10.8-24-24v-80c0-13.2 10.8-24 24-24h80c13.2 0 24 10.8 24 24zM512 216.003v80c0 13.2-10.8 24-24 24h-80c-13.2 0-24-10.8-24-24v-80c0-13.2 10.8-24 24-24h80c13.2 0 24 10.8 24 24zM320 216.003v80c0 13.2-10.8 24-24 24h-80c-13.2 0-24-10.8-24-24v-80c0-13.2 10.8-24 24-24h80c13.2 0 24 10.8 24 24zM704 216.003v80c0 13.2-10.8 24-24 24h-80c-13.2 0-24-10.8-24-24v-80c0-13.2 10.8-24 24-24h80c13.2 0 24 10.8 24 24zM896 736.003v-704c0-53-43-96-96-96h-704c-53 0-96 43-96 96v704c0 53 43 96 96 96h96v104c0 13.2 10.8 24 24 24h80c13.2 0 24-10.8 24-24v-104h256v104c0 13.2 10.8 24 24 24h80c13.2 0 24-10.8 24-24v-104h96c53 0 96-43 96-96zM800 44.003v596h-704v-596c0-6.6 5.4-12 12-12h680c6.6 0 12 5.4 12 12z" />
<glyph unicode="&#xe92c;" glyph-name="video" d="M0 832v-768h1024v768h-1024zM192 128h-128v128h128v-128zM192 384h-128v128h128v-128zM192 640h-128v128h128v-128zM768 128h-512v640h512v-640zM960 128h-128v128h128v-128zM960 384h-128v128h128v-128zM960 640h-128v128h128v-128zM384 640v-384l256 192z" />
<glyph unicode="&#xe92d;" glyph-name="chevron-small-down" d="M687.002 557.619c13.875 13.722 36.301 13.722 50.074 0 13.824-13.722 13.926-35.891 0-49.613l-200.090-196.096c-13.824-13.722-36.198-13.722-50.125 0l-200.090 196.096c-13.824 13.67-13.824 35.891 0 49.613 13.875 13.722 36.301 13.722 50.074 0l175.155-160.819 175.002 160.819z" />
<glyph unicode="&#xe92e;" glyph-name="chevron-small-up" d="M336.998 338.381c-13.875-13.722-36.301-13.722-50.074 0s-13.926 35.891 0 49.613l200.090 196.096c13.824 13.722 36.198 13.722 50.125 0l200.090-196.096c13.824-13.67 13.824-35.891 0-49.613-13.875-13.722-36.301-13.722-50.125 0l-175.104 160.819-175.002-160.819z" />
<glyph unicode="&#xe92f;" glyph-name="cross" d="M1014.662 137.34c-0.004 0.004-0.008 0.008-0.012 0.010l-310.644 310.65 310.644 310.65c0.004 0.004 0.008 0.006 0.012 0.010 3.344 3.346 5.762 7.254 7.312 11.416 4.246 11.376 1.824 24.682-7.324 33.83l-146.746 146.746c-9.148 9.146-22.45 11.566-33.828 7.32-4.16-1.55-8.070-3.968-11.418-7.31 0-0.004-0.004-0.006-0.008-0.010l-310.648-310.652-310.648 310.65c-0.004 0.004-0.006 0.006-0.010 0.010-3.346 3.342-7.254 5.76-11.414 7.31-11.38 4.248-24.682 1.826-33.83-7.32l-146.748-146.748c-9.148-9.148-11.568-22.452-7.322-33.828 1.552-4.16 3.97-8.072 7.312-11.416 0.004-0.002 0.006-0.006 0.010-0.010l310.65-310.648-310.65-310.652c-0.002-0.004-0.006-0.006-0.008-0.010-3.342-3.346-5.76-7.254-7.314-11.414-4.248-11.376-1.826-24.682 7.322-33.83l146.748-146.746c9.15-9.148 22.452-11.568 33.83-7.322 4.16 1.552 8.070 3.97 11.416 7.312 0.002 0.004 0.006 0.006 0.010 0.010l310.648 310.65 310.648-310.65c0.004-0.002 0.008-0.006 0.012-0.008 3.348-3.344 7.254-5.762 11.414-7.314 11.378-4.246 24.684-1.826 33.828 7.322l146.746 146.748c9.148 9.148 11.57 22.454 7.324 33.83-1.552 4.16-3.97 8.068-7.314 11.414z" />
<glyph unicode="&#xe930;" glyph-name="checkmark, tick, correct, accept, ok" d="M864 832l-480-480-224 224-160-160 384-384 640 640z" />
<glyph unicode="&#xe931;" glyph-name="mobile" horiz-adv-x="640" d="M544 960h-448c-53 0-96-43-96-96v-832c0-53 43-96 96-96h448c53 0 96 43 96 96v832c0 53-43 96-96 96zM320 0c-35.4 0-64 28.6-64 64s28.6 64 64 64 64-28.6 64-64-28.6-64-64-64zM544 216c0-13.2-10.8-24-24-24h-400c-13.2 0-24 10.8-24 24v624c0 13.2 10.8 24 24 24h400c13.2 0 24-10.8 24-24v-624z" />
<glyph unicode="&#xe932;" glyph-name="tablet" horiz-adv-x="896" d="M800 960h-704c-53 0-96-43-96-96v-832c0-53 43-96 96-96h704c53 0 96 43 96 96v832c0 53-43 96-96 96zM448 0c-35.4 0-64 28.6-64 64s28.6 64 64 64 64-28.6 64-64-28.6-64-64-64zM800 216c0-13.2-10.8-24-24-24h-656c-13.2 0-24 10.8-24 24v624c0 13.2 10.8 24 24 24h656c13.2 0 24-10.8 24-24v-624z" />
<glyph unicode="&#xe933;" glyph-name="desktop" horiz-adv-x="1152" d="M1056 960h-960c-53 0-96-43-96-96v-640c0-53 43-96 96-96h384l-32-96h-144c-26.6 0-48-21.4-48-48s21.4-48 48-48h544c26.6 0 48 21.4 48 48s-21.4 48-48 48h-144l-32 96h384c53 0 96 43 96 96v640c0 53-43 96-96 96zM1024 256h-896v576h896v-576z" />
<glyph unicode="&#xe934;" glyph-name="key" d="M886.886 960h80.212c31.42 0 56.888-25.47 56.888-56.888v-142.22c0-15.709-12.737-28.444-28.444-28.444h-106.38c-8.169-0.601-15.656-4.761-20.48-11.378h-2.844c-8.004-7.994-12.504-18.839-12.516-30.151v-100.123c0-15.709-12.737-28.444-28.444-28.444h-101.261c-11.31-0.010-22.158-4.512-30.151-12.516l-14.791-14.791c-8.004-7.994-12.504-18.839-12.516-30.151v-40.959c-0.063-14.924-5.99-29.226-16.498-39.821l-50.061-50.061c17.169-39.497 26.072-82.090 26.169-125.154 0-172.803-140.083-312.884-312.884-312.884s-312.884 140.081-312.884 312.884c0 172.801 140.083 312.884 312.884 312.884 43.324 0.053 86.17-9.060 125.722-26.738l408.456 408.456c10.598 10.51 24.9 16.435 39.821 16.498zM138.807 188.598c0-62.838 50.939-113.776 113.776-113.776 30.176 0 59.115 11.986 80.452 33.326s33.325 50.277 33.325 80.451c0 62.838-50.939 113.776-113.776 113.776s-113.776-50.937-113.776-113.776z" />
<glyph unicode="&#xe935;" glyph-name="patcher" d="M512 887.040c0.085 5.785-2.236 11.346-6.409 15.36l-8.542 8.533c-4.006 4.038-9.468 6.31-15.159 6.31-5.696 0-11.153-2.272-15.164-6.31l-151.194-150.613c-8.191-8.44-8.191-21.853 0-30.294l151.194-150.613c4.011-4.039 9.468-6.31 15.164-6.31 5.692 0 11.153 2.272 15.159 6.31l8.542 8.533c4.173 4.014 6.494 9.575 6.409 15.36v100.693c141.53 0 256.265-114.615 256.265-256 0.009-41.348-10.112-82.069-29.474-118.613-4.42-8.32-2.859-18.551 3.844-25.173l31.181-31.147c4.723-4.672 11.354-6.878 17.937-5.973 6.528 0.9 12.318 4.655 15.804 10.24 61.005 105.553 61.039 235.597 0.090 341.182-60.954 105.586-173.636 170.693-295.646 170.818v97.707zM542.11 322.897c5.696 0 11.153-2.27 15.164-6.31l151.194-150.613c8.192-8.439 8.192-21.854 0-30.293l-151.194-150.613c-4.011-4.041-9.468-6.31-15.164-6.31-5.692 0-11.153 2.27-15.159 6.31l-8.542 8.533c-4.173 4.015-6.494 9.574-6.409 15.36v97.707c-122.009 0.124-234.694 65.233-295.644 170.816-60.95 105.587-60.917 235.631 0.088 341.184 3.298 5.912 9.117 9.997 15.803 11.093 6.584 0.906 13.215-1.302 17.938-5.973l31.606-31.574c6.575-6.688 8.124-16.831 3.844-25.173-19.762-36.561-30.041-77.487-29.897-119.040 0-141.385 114.733-256 256.263-256v100.693c-0.085 5.786 2.236 11.345 6.409 15.36l8.542 8.533c4.006 4.041 9.468 6.31 15.159 6.31z" />
<glyph unicode="&#xe936;" glyph-name="avada-logo" d="M2.243-33.516c-7.109-14.219 3.656-30.063 19.704-30.063 453.793-0.813 792.41 437.949 543.78 937.852l-36.97 74.143c-7.72 15.438-29.455 15.438-37.174 0l-489.34-981.93zM792.842 418.25c-7.718 15.439-29.658 15.439-37.173 0l-112.533-219.787c-60.533-121.064 15.642-262.444 161.488-262.444h198.459c15.437 0 25.594 16.25 18.687 30.063l-228.928 452.167z" />
<glyph unicode="&#xe938;" glyph-name="bars" horiz-adv-x="896" d="M32 696h832c17.674 0 32 14.326 32 32v80c0 17.674-14.326 32-32 32h-832c-17.674 0-32-14.326-32-32v-80c0-17.674 14.326-32 32-32zM32 376h832c17.674 0 32 14.326 32 32v80c0 17.674-14.326 32-32 32h-832c-17.674 0-32-14.326-32-32v-80c0-17.674 14.326-32 32-32zM32 56h832c17.674 0 32 14.326 32 32v80c0 17.674-14.326 32-32 32h-832c-17.674 0-32-14.326-32-32v-80c0-17.674 14.326-32 32-32z" />
<glyph unicode="&#xe941;" glyph-name="dynamic-data" horiz-adv-x="896" d="M896 813.714v-91.428c0-80.572-200.666-146.286-448-146.286s-448 65.714-448 146.286v91.428c0 80.572 200.666 146.286 448 146.286s448-65.714 448-146.286zM896 608v-205.714c0-80.572-200.666-146.286-448-146.286s-448 65.714-448 146.286v205.714c96.25-66.286 272.416-97.144 448-97.144s351.748 30.858 448 97.144zM896 288v-205.714c0-80.572-200.666-146.286-448-146.286s-448 65.714-448 146.286v205.714c96.25-66.286 272.416-97.144 448-97.144s351.748 30.858 448 97.144z" />
<glyph unicode="&#xe942;" glyph-name="gradient-fill" horiz-adv-x="952" d="M844.8 755.7h-738.1c-57.9 0-105.2-47.3-105.2-105.2v-403.8c0-57.9 47.3-105.2 105.2-105.2h738.1c57.9 0 105.2 47.3 105.2 105.2v403.8c0 57.8-47.3 105.2-105.2 105.2zM80.9 248.9v370.6c0 28.9 23.7 52.6 52.6 52.6h717.5l-770.1-423.2z" />
<glyph unicode="&#xe943;" glyph-name="fill-drip-solid" horiz-adv-x="1152" d="M1024 320s-128-185.3-128-256c0-70.7 57.32-128 128-128s128 57.3 128 128-128 256-128 256zM1005.26 525.88l-415.38 415.38c-12.5 12.5-28.88 18.74-45.26 18.74s-32.76-6.24-45.24-18.74l-163.16-163.16-172.36 172.38c-12.5 12.5-32.76 12.5-45.24 0l-45.24-45.24c-12.48-12.5-12.48-32.76 0-45.24l172.38-172.36-189.52-189.52c-74.98-74.96-74.98-196.52 0-271.5l234.38-234.38c37.48-37.48 86.62-56.24 135.74-56.24 49.14 0 98.26 18.74 135.74 56.24l443.14 443.14c25 25 25 65.5 0.020 90.5zM772.82 383.94h-640.96c2.72 7.68 7.14 15.96 14.86 23.66l189.52 189.52 117.2-117.2c24.98-24.98 65.5-24.98 90.48 0s24.98 65.5 0 90.48l-117.2 117.2 117.9 117.9 324.88-324.88-96.68-96.68z" />
<glyph unicode="&#xe945;" glyph-name="hover-state" d="M618.732-38.577l379.649 230.192c16.748 10.164 26.565 28.644 25.526 48.279-0.693 13.283-3.35 31.070-9.818 54.401-20.097 72.881-60.753 235.39-119.312 333.103-43.197 71.957-91.592 150.843-114.114 187.341-15.362 24.833-38.693 44.006-66.413 53.13-32.571 10.857-76.692 10.857-122.892-32.456 0 0-97.944 50.127-160.776-26.681 0 0-113.999 36.152-148.071-31.070l-43.197 65.373c-13.514 20.444-29.106 39.501-46.431 56.942-8.778 8.894-15.015 16.055-24.833 25.179-19.982 18.827-42.389 20.906-72.303 11.319-17.441-5.66-33.264-16.979-47.471-28.529-36.96-30.146-46.316-82.929-22.407-124.163l230.192-396.397-109.032 33.957c-12.128 3.812-24.833 5.429-37.538 4.851-31.185-1.617-83.391-13.514-104.528-73.112 0 0-29.222-88.704 54.285-134.558 0 0 393.972-185.955 504.505-256.642 16.979-10.395 38.115-10.626 54.978-0.462z" />
<glyph unicode="&#xe946;" glyph-name="regular-state" d="M911.589 551.754l-758.524 403.705c-27.867 14.894-60.538-9.249-55.373-41.079l141.135-861.943c4.564-27.266 39.758-33.872 53.331-10.21l117.592 204.195c13.573 23.783 46.845 25.344 62.46 2.763l185.457-264.493c17.777-25.344 43.602-41.319 71.348-46.725l0.601-0.601 0.601 0.48c29.788-5.405 61.979 1.081 88.404 21.14v0c49.968 38.076 60.778 109.785 24.383 161.434l-185.817 264.252c-16.215 22.942-4.084 55.133 22.942 61.379l224.614 51.409c25.705 6.126 30.269 41.68 6.847 54.292z" />
<glyph unicode="&#xe948;" glyph-name="author" d="M800 640c0-97.295-43.421-184.448-111.946-243.139 39.933-20.975 76.31-47.805 107.994-79.343l-87.523-93.516c-58.077 59.245-139.008 96-228.524 96-176.73 0-319.999-143.27-319.999-319.999 0-35.347-28.654-64-64-64s-64 28.653-64 64c0 172.323 97.292 321.919 239.944 396.86-68.523 58.691-111.945 145.843-111.945 243.139 0 176.731 143.27 319.999 319.999 319.999s319.999-143.269 319.999-319.999zM288 640c0-106.038 85.962-192 192-192s192 85.962 192 192c0 106.039-85.962 192-192 192s-192-85.961-192-192zM857.366 79.302l-95.107-95.116c-12.038-11.023-26.422-19.171-42.063-23.827l-92.787-23.21c-5.232-2.272-11.322-1.11-15.354 2.928-4.029 4.042-5.178 10.138-2.893 15.37l23.197 92.835c4.608 15.67 12.758 30.067 23.814 42.086l165.626 165.632 106.202-106.218-70.634-70.479zM961.98 192l-97.981 97.935 9.77 9.773c17.494 17.501 42.998 24.335 66.895 17.93 23.901-6.406 42.57-25.078 48.973-48.986s-0.429-49.414-17.926-66.915l-9.731-9.738z" />
<glyph unicode="&#xe949;" glyph-name="comments" d="M511.542 64.317c-174.33 0.15-326.724 117.619-371.246 286.166-44.523 168.55 29.978 345.954 181.493 432.177s342.083 59.664 464.25-64.699 145.322-315.378 56.413-465.33c-8.966-15.184-11.286-33.389-6.413-50.333l32.061-109.002-109.962 31.418c-16.966 4.896-35.197 2.576-50.397-6.41-59.325-35.382-127.126-54.038-196.198-53.987v0 0zM942.288-61.216c22.384-6.384 46.47-0.141 62.931 16.32 16.458 16.461 22.704 40.547 16.32 62.931-6.387 22.384-55.462 193.699-55.398 194.275 116.349 224.128 51.856 499.615-151.888 648.806s-485.846 127.496-664.382-51.093c-178.536-178.589-200.148-460.698-50.898-664.401 149.25-203.699 424.756-268.112 648.848-151.696 0.576-0.128 194.723-55.206 194.723-55.206l-0.256 0.064zM368 544h288c26.509 0 48 21.491 48 48s-21.491 48-48 48h-288c-26.509 0-48-21.491-48-48s21.491-48 48-48zM368 384h288c26.509 0 48 21.491 48 48s-21.491 48-48 48h-288c-26.509 0-48-21.491-48-48s21.491-48 48-48zM368 224h224c26.509 0 48 21.491 48 48s-21.491 48-48 48h-224c-26.509 0-48-21.491-48-48s21.491-48 48-48z" />
</font>
</defs>
</svg>
